<?xml version="1.0" standalone="no"?>
<!DOCTYPE svg PUBLIC "-//W3C//DTD SVG 1.1//EN" "http://www.w3.org/Graphics/SVG/1.1/DTD/svg11.dtd" >
<svg xmlns="http://www.w3.org/2000/svg" xmlns:xlink="http://www.w3.org/1999/xlink" version="1.1">
<metadata></metadata>
<defs>
<font id="homizio_novaregular" horiz-adv-x="599" >
<font-face units-per-em="1000" ascent="800" descent="-200" />
<missing-glyph horiz-adv-x="273" />
<glyph unicode="AE" horiz-adv-x="774" d="M179 212c-33 -67 -70 -145 -103 -212h-74l340 700h398v-65h-272v-252h252v-62h-252v-259h287v-62h-353v212h-223zM402 635h-21c-57 -121 -114 -240 -173 -361h194v361z" />
<glyph unicode="ae" horiz-adv-x="891" d="M434 206c-34 22 -70 37 -118 37c-58 0 -102 -25 -122 -64c-7 -13 -10 -28 -10 -44c0 -57 40 -89 98 -89c43 0 79 12 107 34v-1c13 10 24 20 31 29s12 17 14 24v74zM328 454c-65 0 -112 -27 -150 -61l-39 41c50 52 114 78 193 78c52 0 89 -13 111 -38 c15 -17 26 -35 36 -55c40 62 101 93 181 93c103 0 159 -61 182 -143c8 -30 12 -64 12 -101v-29h-355c3 -86 35 -151 96 -179c20 -9 42 -14 66 -14c52 0 101 20 146 57l30 -50c-60 -43 -122 -65 -185 -65c-84 0 -145 34 -183 100c-31 -35 -62 -60 -92 -76s-64 -24 -99 -24 c-75 0 -125 35 -147 88c-7 18 -11 37 -11 58c8 80 55 132 122 153c22 7 45 11 69 11c50 0 90 -12 124 -32c0 19 -1 38 -1 57c-4 75 -32 131 -106 131zM791 297c-6 89 -44 157 -133 157c-72 0 -114 -40 -137 -90c-9 -20 -15 -42 -19 -67h289z" />
<glyph unicode="OE" horiz-adv-x="856" d="M493 0c-43 -6 -91 -12 -135 -12c-111 0 -194 40 -248 100c-54 59 -88 146 -88 255c0 174 76 291 200 342c42 18 91 26 144 26c46 0 89 -3 128 -11h326v-62h-272v-254h252v-62h-252v-260h287v-62h-342zM482 639c-37 7 -76 11 -119 11c-90 0 -156 -36 -200 -85 c-45 -50 -73 -125 -73 -217c0 -139 56 -234 153 -276c33 -14 71 -22 114 -22c45 0 85 5 125 13v576z" />
<glyph unicode="oe" horiz-adv-x="900" d="M469 387c36 70 95 125 193 125c103 0 159 -60 182 -142c8 -30 12 -64 12 -102v-29h-356c4 -85 38 -150 97 -179c19 -9 41 -14 65 -14c53 0 106 22 161 65l26 -53c-68 -46 -132 -70 -193 -70c-98 0 -156 51 -188 124c-37 -74 -99 -124 -203 -124c-78 0 -136 30 -174 73 c-39 43 -64 106 -64 186c0 126 54 211 144 247c30 12 63 18 99 18c103 0 167 -54 199 -125zM792 297c-6 89 -44 157 -133 157c-94 0 -142 -69 -155 -157h288zM438 250c0 123 -52 204 -170 204c-90 0 -142 -52 -164 -121c-8 -26 -13 -54 -13 -87c0 -92 38 -156 102 -185 c21 -10 46 -15 73 -15c89 0 139 48 160 118c8 25 12 54 12 86z" />
<glyph unicode="fi" horiz-adv-x="417" d="M394 500v-500h-62v442h-178v-442h-62v442h-86v58h86v74c0 79 32 132 87 154c17 7 36 11 56 11c31 0 56 -11 81 -24l-26 -53c-17 13 -37 19 -57 19c-53 0 -79 -37 -79 -111v-70h240z" />
<glyph unicode="fl" horiz-adv-x="545" d="M337 633c-13 32 -50 48 -98 48c-53 0 -79 -37 -79 -111v-70h127v-58h-127v-442h-62v442h-87v58h87v74c0 79 31 132 87 154c17 7 36 11 56 11c95 0 147 -35 158 -104v-502c0 -53 12 -85 60 -85c17 0 39 8 67 24v-62c-22 -11 -43 -19 -72 -19c-77 0 -117 46 -117 137v505z " />
<glyph unicode="&#xd;" horiz-adv-x="0" />
<glyph unicode=" "  horiz-adv-x="273" />
<glyph unicode="&#x09;" horiz-adv-x="273" />
<glyph unicode="&#xa0;" horiz-adv-x="273" />
<glyph unicode="!" horiz-adv-x="107" d="M22 189v504h64l-4 -504h-60zM101 39c0 -27 -22 -47 -48 -47c-27 0 -47 20 -47 47s20 47 47 47s48 -20 48 -47z" />
<glyph unicode="&#x22;" horiz-adv-x="243" d="M150 463v230h59l-4 -230h-55zM93 463h-59v230h59v-230z" />
<glyph unicode="#" horiz-adv-x="554" d="M354 500c13 61 29 132 42 193h57l-42 -193h130l-14 -56h-127c-11 -49 -21 -94 -32 -143h134l-13 -56h-132c-13 -59 -29 -128 -41 -187h-57l40 187h-106c-13 -59 -28 -128 -40 -187h-58l41 187h-133l14 56h130c11 49 21 94 32 143h-137l13 56h135c13 61 29 132 42 193h57 l-41 -193h106zM236 444c-11 -49 -20 -94 -31 -143h106c11 49 21 94 32 143h-107z" />
<glyph unicode="$" horiz-adv-x="383" d="M216 693c47 -1 88 -10 123 -24v-71c-38 22 -79 34 -123 35v-269c48 -27 90 -52 120 -89c21 -26 34 -54 34 -98c0 -76 -40 -125 -90 -152c-19 -10 -40 -18 -64 -22v-101h-55v98c-59 3 -113 19 -154 42v70c44 -28 93 -52 154 -54v267c-32 18 -58 34 -78 49 c-45 33 -76 66 -76 139c0 75 43 124 92 153c19 11 40 19 62 24v87h55v-84zM161 630c-52 -12 -90 -49 -90 -111c0 -47 18 -71 45 -94c12 -10 27 -19 45 -30v235zM216 62c53 13 90 45 90 106c0 47 -17 71 -45 93c-12 9 -27 20 -45 31v-230z" />
<glyph unicode="%" horiz-adv-x="757" d="M188 343c-82 0 -133 45 -155 107c-8 22 -11 46 -11 72c0 88 38 147 101 172c21 8 44 12 69 12c81 0 131 -44 152 -106c8 -23 11 -48 11 -77c0 -83 -40 -140 -98 -166c-21 -9 -44 -14 -69 -14zM293 524c0 74 -33 124 -102 124c-72 0 -107 -52 -107 -127 c0 -71 33 -122 104 -122s105 54 105 125zM194 -16h-69l417 708h67zM556 -12c-82 0 -133 45 -154 107c-8 22 -11 46 -11 73c0 88 38 147 101 172c21 8 44 12 69 12c81 0 130 -45 151 -107c8 -23 11 -48 11 -76c0 -83 -40 -141 -98 -167c-21 -9 -44 -14 -69 -14zM662 170 c0 76 -31 124 -102 124c-72 0 -107 -54 -107 -127c0 -56 21 -96 60 -114c13 -6 28 -9 44 -9c71 0 105 54 105 126z" />
<glyph unicode="&#x26;" horiz-adv-x="655" d="M583 375c-3 -100 -33 -176 -76 -242c46 -46 95 -90 141 -134l-95 1l-86 84c-63 -64 -138 -96 -226 -96c-102 0 -175 43 -205 115c-10 23 -15 49 -15 76c0 44 13 83 38 116s62 62 113 86c-22 28 -40 55 -52 82s-18 53 -18 76c0 51 21 91 49 117c29 27 72 48 126 48 c73 0 121 -34 142 -87c7 -18 11 -37 11 -58c0 -79 -36 -122 -84 -156c-20 -14 -44 -27 -71 -40c60 -64 123 -125 189 -186c33 54 53 117 56 198h63zM86 182c0 -67 40 -108 92 -126c20 -7 42 -10 67 -10c66 0 125 27 179 80c-51 49 -93 91 -127 125s-62 62 -83 85 c-41 -20 -72 -42 -94 -68s-34 -55 -34 -86zM166 538c0 -36 21 -81 65 -131c43 19 79 39 106 68c19 20 29 43 29 78c0 45 -24 73 -57 86c-11 4 -24 7 -37 7c-51 0 -85 -28 -99 -66c-5 -13 -7 -27 -7 -42z" />
<glyph unicode="'" horiz-adv-x="113" d="M87 463h-59v230h59v-230z" />
<glyph unicode="(" horiz-adv-x="225" d="M7 266c0 172 50 314 150 427h71c-106 -121 -159 -263 -159 -426c0 -154 52 -294 156 -420h-70c-98 116 -148 255 -148 419z" />
<glyph unicode=")" horiz-adv-x="225" d="M152 267c0 163 -53 305 -158 426h70c100 -113 150 -255 150 -427c0 -165 -50 -304 -148 -419h-69c104 126 155 266 155 420z" />
<glyph unicode="*" horiz-adv-x="361" d="M138 498c-42 11 -93 24 -135 34l18 59l132 -47v149h56v-149c38 15 86 33 124 47l19 -59l-134 -34c29 -39 63 -84 91 -123l-52 -35l-79 127c-25 -39 -56 -88 -81 -127l-51 35z" />
<glyph unicode="+" horiz-adv-x="447" d="M249 261v-194h-58v194h-194v58h194v194h58v-194h193v-58h-193z" />
<glyph unicode="," horiz-adv-x="138" d="M54 -117h-56l76 242h68z" />
<glyph unicode="-" horiz-adv-x="345" d="M31 261v61h276v-61h-276z" />
<glyph unicode="." horiz-adv-x="135" d="M115 39c0 -27 -23 -47 -49 -47s-46 21 -46 47c0 27 19 47 46 47s49 -20 49 -47z" />
<glyph unicode="/" horiz-adv-x="389" d="M55 -112h-64l334 805h66z" />
<glyph unicode="0" horiz-adv-x="481" d="M230 -12c-75 0 -121 38 -152 88c-38 62 -55 152 -55 256c0 123 19 216 57 278s93 94 165 94c136 0 204 -118 204 -355c0 -110 -17 -203 -57 -268c-33 -53 -83 -93 -162 -93zM241 646c-49 0 -86 -26 -113 -77s-41 -129 -41 -232c0 -85 11 -160 38 -214 c21 -42 54 -77 111 -77c56 0 89 36 110 78c28 55 39 132 39 219c0 202 -48 303 -144 303z" />
<glyph unicode="1" horiz-adv-x="255" d="M158 0v637c-54 -19 -111 -39 -165 -58v63l227 78v-720h-62z" />
<glyph unicode="2" horiz-adv-x="445" d="M363 517c0 84 -47 129 -131 129c-57 0 -116 -28 -177 -82v77c56 42 117 63 183 63c92 0 152 -40 177 -107c8 -22 12 -47 12 -74c0 -90 -39 -144 -87 -202c-24 -29 -54 -63 -91 -102l-152 -161h326v-58h-403v60l186 197c32 34 58 64 80 90c42 51 77 92 77 170z" />
<glyph unicode="3" horiz-adv-x="417" d="M302 525c0 78 -45 121 -125 121c-41 0 -89 -17 -143 -52v69c57 27 106 41 149 41c86 0 144 -38 170 -99c9 -21 13 -43 13 -68c0 -85 -36 -143 -108 -173c60 -16 104 -53 123 -110c6 -19 9 -39 9 -60c0 -67 -27 -116 -64 -149c-38 -34 -95 -57 -165 -57 c-52 0 -104 14 -154 40v71c60 -35 111 -53 155 -53c77 0 130 31 153 84c7 17 11 37 11 58c0 104 -84 142 -194 142h-61v58h55c105 0 176 38 176 137z" />
<glyph unicode="4" horiz-adv-x="479" d="M370 191v-191h-62v191h-311v48l315 454h58v-444h89v-58h-89zM308 249v336l-233 -336h233z" />
<glyph unicode="5" horiz-adv-x="401" d="M161 417c141 0 226 -68 226 -208c0 -108 -54 -175 -134 -205c-29 -11 -62 -16 -100 -16c-51 0 -96 10 -134 29v72c51 -28 97 -43 138 -43c80 0 133 35 155 93c7 19 11 41 11 65c0 103 -59 155 -177 155c-49 0 -86 -9 -109 -26v360h322v-59h-260v-219c29 2 49 2 62 2z" />
<glyph unicode="6" horiz-adv-x="461" d="M292 704c41 0 75 -7 107 -19v-68c-39 19 -74 29 -108 29c-69 0 -114 -38 -144 -82c-36 -52 -58 -127 -62 -212c36 59 89 88 160 88c63 0 110 -28 140 -63c31 -36 53 -89 53 -154c0 -107 -52 -183 -126 -217c-26 -12 -53 -18 -84 -18c-73 0 -122 34 -153 81 c-38 57 -54 139 -54 236c0 171 48 310 156 371c34 19 72 28 115 28zM235 382c-46 0 -81 -22 -104 -48c-22 -25 -42 -61 -42 -104c0 -79 33 -140 84 -169c17 -10 37 -15 58 -15c46 0 80 22 102 48c24 28 41 69 41 120c0 76 -30 132 -81 156c-17 8 -37 12 -58 12z" />
<glyph unicode="7" horiz-adv-x="433" d="M-1 634v59h425v-24l-273 -669h-68l262 634h-346z" />
<glyph unicode="8" horiz-adv-x="464" d="M21 168c0 84 47 149 141 193c-39 21 -69 46 -89 74s-29 60 -29 96c0 84 52 137 115 160c24 9 50 13 78 13c82 0 138 -39 163 -97c8 -20 13 -42 13 -65c0 -76 -41 -136 -124 -178c97 -40 146 -103 146 -189c0 -94 -55 -149 -127 -173c-27 -9 -59 -14 -94 -14 c-90 0 -152 43 -179 107c-9 22 -14 46 -14 73zM371 169c0 39 -13 71 -37 96s-61 46 -111 63c-70 -29 -139 -63 -139 -158c0 -61 38 -98 85 -114c18 -6 37 -10 59 -10c66 0 113 29 133 75c7 15 10 31 10 48zM349 537c0 70 -49 109 -119 109c-55 0 -95 -27 -113 -65 c-6 -13 -9 -27 -9 -43c0 -62 40 -110 118 -144c82 34 123 81 123 143z" />
<glyph unicode="9" horiz-adv-x="461" d="M159 46c64 0 114 25 149 74s55 121 59 218c-34 -54 -86 -82 -157 -82c-63 0 -110 26 -141 61c-32 36 -54 89 -54 155c0 108 52 182 128 215c26 11 54 17 85 17c71 0 118 -33 149 -79c38 -56 55 -137 55 -235c0 -175 -43 -316 -156 -375c-34 -18 -73 -27 -118 -27 c-36 0 -72 7 -108 20v69c44 -21 81 -31 109 -31zM221 646c-46 0 -80 -21 -102 -47c-24 -27 -40 -68 -40 -118c0 -77 31 -131 84 -155c17 -8 36 -12 57 -12c43 0 78 21 101 44s41 57 41 100c0 82 -31 146 -84 174c-17 9 -36 14 -57 14z" />
<glyph unicode=":" horiz-adv-x="123" d="M109 462c0 -26 -22 -48 -48 -48c-27 0 -47 22 -47 48c0 27 20 46 47 46c26 0 48 -19 48 -46zM109 39c0 -27 -22 -47 -48 -47c-27 0 -47 20 -47 47s20 47 47 47s48 -20 48 -47z" />
<glyph unicode=";" horiz-adv-x="143" d="M143 462c0 -26 -20 -48 -47 -48s-47 21 -47 48s20 46 47 46s47 -19 47 -46zM50 -117h-56l76 242h69z" />
<glyph unicode="&#x3c;" horiz-adv-x="444" d="M96 287c102 -50 207 -102 309 -152v-67l-410 208v19l410 231v-66z" />
<glyph unicode="=" horiz-adv-x="488" d="M33 353v58h445v-58h-445zM33 170v59h445v-59h-445z" />
<glyph unicode="&#x3e;" horiz-adv-x="443" d="M340 287c-102 57 -208 116 -310 173v66l410 -231v-19l-410 -208v67z" />
<glyph unicode="?" horiz-adv-x="368" d="M148 187c-8 21 -14 49 -14 78c0 51 24 84 50 111c37 38 85 68 104 124c4 13 6 27 6 42c0 65 -44 101 -109 101c-61 0 -110 -26 -138 -62l-52 30c38 60 102 91 191 93c80 0 134 -35 159 -91c9 -20 13 -42 13 -67c0 -80 -47 -123 -88 -163c-16 -16 -30 -29 -40 -39 c-22 -22 -39 -38 -39 -78c0 -27 8 -58 15 -79h-58zM219 39c0 -28 -20 -47 -48 -47c-26 0 -46 21 -46 47c0 27 19 47 46 47s48 -19 48 -47z" />
<glyph unicode="@" horiz-adv-x="830" d="M410 530c42 0 76 -21 95 -45l2 20c1 7 1 12 2 18h60l-25 -285c0 -61 20 -92 62 -92s72 28 90 57c22 35 35 86 35 144c0 146 -72 237 -181 277c-39 14 -84 22 -133 22c-105 0 -184 -44 -237 -101s-91 -141 -91 -246c0 -158 74 -261 189 -306c40 -16 86 -23 136 -23 c77 0 144 15 202 44l35 -44c-85 -39 -166 -58 -242 -58c-122 0 -216 43 -279 107c-63 63 -105 158 -105 280c0 115 37 211 113 288c76 78 171 117 284 117c118 0 209 -41 271 -100c59 -57 102 -142 102 -252c0 -113 -41 -203 -112 -244c-23 -13 -48 -20 -74 -20 c-65 0 -104 30 -117 90c-30 -60 -76 -90 -135 -90c-78 0 -122 47 -141 108c-7 22 -10 47 -10 75c0 113 46 199 120 239c25 13 53 20 84 20zM492 369c0 62 -26 103 -84 103c-48 0 -80 -25 -101 -55c-24 -35 -37 -83 -37 -142c0 -70 27 -129 92 -129c47 0 76 31 95 64 c23 40 35 96 35 159z" />
<glyph unicode="A" d="M154 212c-25 -68 -53 -144 -78 -212h-73l265 700h58l261 -700h-73l-78 212h-282zM302 576h1c-3 8 -5 14 -8 23c-40 -112 -77 -214 -118 -325h236z" />
<glyph unicode="B" horiz-adv-x="462" d="M405 533c0 -81 -41 -134 -98 -162c60 -15 103 -51 122 -107c6 -18 9 -39 9 -60c0 -99 -53 -161 -126 -189c-26 -10 -55 -15 -88 -15h-192v700h188c86 0 146 -37 172 -98c9 -21 13 -44 13 -69zM98 638v-244h85c70 0 121 28 143 76c7 16 11 34 11 55c0 76 -45 113 -135 113 h-104zM215 62c98 0 156 43 156 138c0 88 -62 132 -183 132h-90v-270h117z" />
<glyph unicode="C" horiz-adv-x="582" d="M521 589c-44 36 -97 61 -171 61c-84 0 -147 -37 -189 -84c-44 -51 -74 -125 -74 -218c0 -137 56 -234 151 -276c32 -14 67 -22 106 -22c64 0 121 18 169 55l32 -53c-57 -42 -124 -64 -200 -64c-106 0 -185 41 -237 99c-54 59 -88 146 -88 256c0 173 74 290 197 342 c42 18 89 26 141 26c84 0 147 -29 198 -67z" />
<glyph unicode="D" horiz-adv-x="595" d="M213 700c228 0 355 -113 355 -341c0 -113 -39 -199 -97 -258c-60 -61 -149 -101 -268 -101h-170v700h180zM99 638v-576h97c149 0 244 59 284 169c13 37 20 79 20 127c0 187 -97 280 -294 280h-107z" />
<glyph unicode="E" horiz-adv-x="383" d="M31 0v700h337v-62h-271v-254h252v-62h-252v-260h287v-62h-353z" />
<glyph unicode="F" horiz-adv-x="365" d="M96 638v-259h252v-62h-252v-317h-66v700h338v-62h-272z" />
<glyph unicode="G" horiz-adv-x="597" d="M566 69c-58 -45 -122 -81 -221 -81c-106 0 -185 41 -237 99c-54 59 -88 146 -88 256c0 173 74 290 197 342c42 18 89 26 141 26c84 0 147 -29 198 -67l-34 -54c-30 21 -59 35 -88 45s-56 14 -83 14c-81 0 -143 -36 -185 -81c-46 -50 -79 -125 -79 -220 c0 -138 56 -233 151 -276c32 -14 67 -22 106 -22c62 0 114 15 156 46v200h-161v62h227v-289z" />
<glyph unicode="H" horiz-adv-x="573" d="M468 0v327h-370v-327h-67v700h67v-311h370v311h66v-700h-66z" />
<glyph unicode="I" horiz-adv-x="126" d="M94 700v-700h-66v700h66z" />
<glyph unicode="J" horiz-adv-x="268" d="M239 146c0 -171 -61 -256 -181 -256c-25 0 -46 5 -69 11l25 60c17 -6 32 -9 45 -9c40 0 69 16 87 47s27 81 27 148v553h66v-554z" />
<glyph unicode="K" horiz-adv-x="486" d="M96 395c90 101 184 205 276 305h87l-307 -340c108 -119 219 -241 326 -360h-92l-290 325v-325h-66v700h66v-305z" />
<glyph unicode="L" horiz-adv-x="366" d="M29 0v700h66v-638h274v-62h-340z" />
<glyph unicode="M" horiz-adv-x="727" d="M622 543c-82 -181 -166 -362 -248 -543h-27l-253 552v-552h-62v700h58l258 -554c5 -12 8 -24 13 -36c4 12 8 25 14 39l253 551h58v-700h-64v543z" />
<glyph unicode="N" horiz-adv-x="603" d="M96 0h-66v700h51l405 -550c4 -6 9 -11 13 -17c0 5 -1 9 -1 13v554h66v-700h-47l-409 554c-4 5 -8 12 -12 17v-571z" />
<glyph unicode="O" horiz-adv-x="706" d="M346 -12c-106 0 -185 41 -237 99c-54 59 -88 146 -88 256c0 173 74 290 197 342c42 18 89 26 141 26c102 0 178 -41 229 -97c53 -58 88 -145 88 -254c0 -174 -72 -294 -194 -346c-41 -17 -86 -26 -136 -26zM351 650c-84 0 -147 -37 -189 -84c-44 -51 -74 -125 -74 -218 c0 -138 56 -233 151 -276c32 -14 67 -22 106 -22c134 0 213 73 246 176c12 37 18 79 18 127c0 138 -54 236 -151 277c-32 14 -68 20 -107 20z" />
<glyph unicode="P" horiz-adv-x="431" d="M203 700c142 0 225 -61 225 -200c0 -110 -59 -179 -141 -210c-30 -11 -65 -17 -104 -17h-88v-273h-66v700h174zM182 335c112 0 179 51 179 159c0 96 -56 144 -167 144h-99v-303h87z" />
<glyph unicode="Q" horiz-adv-x="694" d="M676 360c0 -141 -49 -244 -128 -307c27 -21 61 -47 88 -68l-39 -41l-99 77c-44 -22 -94 -33 -152 -33c-106 0 -185 41 -237 99c-54 59 -88 146 -88 256c0 173 74 290 197 342c42 18 89 26 141 26c102 0 178 -41 229 -97c53 -58 88 -145 88 -254zM497 93 c75 49 112 136 112 260c0 138 -54 236 -151 277c-32 14 -68 20 -107 20c-84 0 -147 -37 -189 -84c-44 -51 -74 -125 -74 -218c0 -138 56 -233 151 -276c32 -14 67 -22 106 -22c36 0 68 6 96 15l-46 36l38 42z" />
<glyph unicode="R" horiz-adv-x="472" d="M95 304v-304h-67v700h199c95 0 161 -42 189 -110c9 -23 14 -48 14 -76c0 -82 -38 -137 -91 -168c-19 -12 -41 -20 -66 -26c60 -106 123 -214 183 -320h-75l-171 304h-115zM362 509c0 88 -58 129 -150 129h-117v-273h107c75 0 126 30 149 83c8 18 11 39 11 61z" />
<glyph unicode="S" horiz-adv-x="415" d="M178 51c89 0 152 33 152 116c0 37 -9 57 -28 78c-11 12 -25 24 -44 37s-43 27 -72 44c-35 20 -63 40 -86 57c-47 36 -77 74 -77 146c0 57 26 100 59 129c36 32 90 53 156 53c60 -2 114 -23 163 -62l-41 -50c-42 34 -85 51 -128 51c-64 0 -111 -25 -131 -69 c-7 -14 -10 -29 -10 -46c0 -37 8 -57 27 -78c10 -11 25 -23 44 -36c64 -43 157 -89 202 -146c22 -27 33 -55 33 -100c0 -95 -53 -148 -127 -172c-28 -9 -62 -14 -100 -14h-1c-59 2 -113 24 -162 63l41 50c43 -34 86 -51 130 -51z" />
<glyph unicode="T" horiz-adv-x="461" d="M261 638v-638h-66v638h-196v62h458v-62h-196z" />
<glyph unicode="U" horiz-adv-x="549" d="M517 282c0 -196 -84 -294 -252 -294c-160 0 -240 94 -240 283v429h66v-422c0 -152 61 -228 183 -228c118 0 177 74 177 221v429h66v-418z" />
<glyph unicode="V" horiz-adv-x="588" d="M307 0h-48l-257 700h74l199 -554c3 -11 7 -21 10 -32c4 11 7 20 11 32l212 554h71z" />
<glyph unicode="W" horiz-adv-x="888" d="M631 121c53 192 107 387 160 579h71l-205 -700h-53l-154 519c-2 6 -5 14 -6 21c-2 -6 -3 -13 -5 -20c-53 -169 -111 -352 -164 -520h-53l-208 700h73l157 -552c3 -9 4 -17 7 -26c59 190 119 388 178 578h38l157 -553c3 -10 4 -17 7 -26z" />
<glyph unicode="X" horiz-adv-x="549" d="M252 265c-53 -87 -109 -178 -162 -265h-79l222 354c-69 115 -141 231 -209 346h79l155 -261c6 -11 12 -20 18 -31c56 99 115 194 172 292h77l-210 -346c71 -117 144 -237 215 -354h-79l-160 265c-4 6 -7 10 -10 16c-4 8 -5 9 -9 17c-6 -12 -13 -23 -20 -34v1z" />
<glyph unicode="Y" horiz-adv-x="508" d="M248 335c60 121 125 244 185 365h71l-226 -434v-266h-65v265c-71 144 -143 291 -214 435h74l161 -333c5 -10 9 -21 14 -32z" />
<glyph unicode="Z" horiz-adv-x="519" d="M501 62v-62h-497v27l404 611h-371v62h471v-25l-406 -613h399z" />
<glyph unicode="[" horiz-adv-x="190" d="M26 -153v846h168v-59h-106v-729h106v-58h-168z" />
<glyph unicode="\" horiz-adv-x="389" d="M327 -112l-336 805h66l334 -805h-64z" />
<glyph unicode="]" horiz-adv-x="191" d="M-7 -153v58h106v729h-106v59h168v-846h-168z" />
<glyph unicode="^" horiz-adv-x="420" d="M207 608c-46 -91 -96 -187 -141 -278h-66l191 374h31l190 -374h-66z" />
<glyph unicode="_" horiz-adv-x="484" d="M28 -126v61h419v-61h-419z" />
<glyph unicode="`" horiz-adv-x="175" d="M118 558l-131 173h73l123 -173h-65z" />
<glyph unicode="a" horiz-adv-x="427" d="M332 292c0 91 -23 162 -108 162c-54 0 -103 -20 -149 -61l-39 41c50 52 114 78 193 78c114 0 165 -72 165 -190v-322h-62v55c-28 -28 -70 -50 -114 -61c-15 -4 -30 -6 -44 -6c-74 0 -124 35 -146 88c-7 18 -11 36 -11 57c2 123 104 165 228 165c30 0 61 -2 87 -6z M331 236c-23 5 -52 7 -80 7c-68 0 -126 -16 -155 -55c-10 -14 -15 -32 -15 -53c0 -57 40 -89 98 -89c43 0 79 12 107 34v-1c13 10 23 20 30 29s13 17 15 24v104z" />
<glyph unicode="b" horiz-adv-x="478" d="M232 -12c-66 0 -117 25 -152 76v-64h-62v731h62v-305c24 33 60 61 104 76c16 6 34 9 54 9c70 0 123 -35 158 -76c37 -44 63 -108 63 -186c0 -122 -49 -207 -135 -243c-28 -12 -59 -18 -92 -18zM80 138c35 -46 76 -92 156 -92c82 0 128 52 148 116c8 25 12 54 12 86 c0 60 -23 110 -52 144c-26 31 -65 59 -116 61c-75 -6 -112 -50 -148 -97v-218z" />
<glyph unicode="c" horiz-adv-x="430" d="M403 36c-38 -28 -85 -48 -147 -48c-78 0 -136 30 -174 73c-39 43 -63 106 -63 186c0 126 53 211 143 247c30 12 63 18 99 18c54 0 102 -15 144 -46l-34 -49c-32 24 -70 37 -112 37c-90 0 -142 -52 -164 -121c-8 -26 -12 -54 -12 -87c0 -93 37 -156 101 -185 c22 -10 46 -15 73 -15c44 0 83 14 116 41z" />
<glyph unicode="d" horiz-adv-x="478" d="M220 511c78 0 127 -39 158 -85v305h62v-731h-62v64c-36 -51 -87 -76 -152 -76c-113 0 -180 64 -210 150c-11 32 -17 70 -17 111c0 78 27 142 64 186c34 41 87 76 157 76zM378 356c-36 47 -72 91 -147 97c-51 -2 -91 -30 -117 -61c-29 -34 -51 -84 -51 -144 c0 -92 33 -160 95 -188c19 -9 41 -14 64 -14c79 0 121 46 156 92v218z" />
<glyph unicode="e" horiz-adv-x="464" d="M245 46c52 0 101 20 146 57l30 -50c-60 -43 -123 -65 -186 -65c-71 0 -123 29 -157 70c-38 45 -59 112 -59 195c0 77 25 140 62 183c36 42 90 76 163 76c103 0 159 -61 182 -143c8 -30 12 -64 12 -101v-29h-355c3 -86 35 -151 96 -179c20 -9 42 -14 66 -14zM374 297 c-5 89 -43 157 -132 157c-94 0 -143 -70 -157 -157h289z" />
<glyph unicode="f" horiz-adv-x="310" d="M229 681c-53 0 -80 -37 -80 -111v-70h127v-58h-127v-442h-62v442h-87v58h87v74c0 79 31 132 87 154c17 7 36 11 56 11c31 0 56 -11 81 -24l-26 -53c-17 13 -36 19 -56 19z" />
<glyph unicode="g" horiz-adv-x="486" d="M243 512c68 0 114 -27 146 -67v55h62v-455c0 -134 -40 -222 -140 -255c-32 -11 -69 -16 -112 -16c-48 0 -101 14 -159 43l42 50c35 -23 73 -35 117 -35c127 0 190 67 190 201v32c-40 -51 -94 -77 -165 -77c-107 0 -169 65 -196 147c-10 31 -15 67 -15 107 c0 123 51 210 135 250c28 13 60 20 95 20zM229 46c80 0 127 42 160 96v224c-43 58 -91 88 -145 88c-56 0 -95 -25 -121 -58c-28 -36 -46 -88 -46 -151c0 -89 29 -156 89 -185c19 -9 40 -14 63 -14z" />
<glyph unicode="h" horiz-adv-x="429" d="M248 512c119 0 169 -80 169 -204v-308h-62v298c0 97 -28 156 -119 156c-55 0 -104 -37 -146 -109v-345h-62v731h62v-296c39 51 92 77 158 77z" />
<glyph unicode="i" horiz-adv-x="99" d="M94 648c0 -26 -20 -45 -46 -45c-25 0 -45 19 -45 45s19 45 45 45s46 -19 46 -45zM18 0v500h62v-500h-62z" />
<glyph unicode="j" horiz-adv-x="283" d="M265 648c0 -26 -20 -45 -46 -45c-25 0 -45 19 -45 45s19 45 45 45s46 -19 46 -45zM-3 -142c24 -13 48 -26 79 -26c75 0 112 61 112 183v485h62v-477c0 -166 -59 -249 -179 -249c-30 0 -58 11 -78 21c-7 3 -12 7 -16 10z" />
<glyph unicode="k" horiz-adv-x="386" d="M90 284c69 71 138 145 207 216h82l-237 -243l63 -63c64 -64 130 -131 193 -194h-89l-219 226v-226h-62v731h62v-447z" />
<glyph unicode="l" horiz-adv-x="117" d="M86 0h-62v731h62v-731z" />
<glyph unicode="m" horiz-adv-x="739" d="M386 384c6 -20 9 -40 9 -65v-319h-62v302c0 101 -37 152 -112 152c-63 -7 -101 -42 -128 -91v-363h-62v500h62v-60c33 41 73 72 139 72c28 0 52 -11 72 -22c25 -14 47 -35 63 -59c34 46 75 81 145 81c46 0 83 -21 109 -47c32 -33 54 -81 54 -146v-319h-62v302 c0 101 -37 152 -112 152c-51 -6 -89 -35 -115 -70z" />
<glyph unicode="n" horiz-adv-x="451" d="M90 440c33 41 74 72 139 72c46 0 83 -21 109 -47c32 -32 54 -81 54 -146v-319h-62v302c0 101 -37 152 -112 152c-63 -7 -101 -42 -128 -91v-363h-62v500h62v-60z" />
<glyph unicode="o" horiz-adv-x="523" d="M257 -12c-78 0 -136 30 -174 73c-39 43 -63 106 -63 186c0 126 53 211 143 247c30 12 63 18 99 18c117 0 186 -64 216 -153c11 -32 16 -69 16 -110c0 -121 -54 -204 -139 -241c-29 -13 -62 -20 -98 -20zM430 250c0 123 -52 204 -170 204c-90 0 -142 -52 -164 -121 c-8 -26 -13 -54 -13 -87c0 -92 38 -156 102 -185c21 -10 46 -15 73 -15c89 0 139 48 160 118c8 25 12 54 12 86z" />
<glyph unicode="p" horiz-adv-x="478" d="M238 -10c-78 0 -127 38 -158 84v-296h-62v722h62v-64c36 51 86 76 152 76c113 0 181 -64 211 -150c11 -32 16 -69 16 -110c0 -78 -26 -143 -63 -187c-35 -41 -88 -75 -158 -75zM80 144c36 -46 74 -90 148 -96c51 2 90 30 116 61c29 34 52 84 52 144c0 92 -33 159 -95 188 c-19 9 -42 13 -65 13c-80 0 -120 -47 -156 -92v-218z" />
<glyph unicode="q" horiz-adv-x="478" d="M245 512c65 0 116 -25 152 -76v64h62v-722h-62v296c-24 -33 -60 -61 -104 -76c-16 -6 -34 -8 -54 -8c-70 0 -123 34 -157 75c-37 44 -64 109 -64 187c0 122 50 207 136 243c28 12 58 17 91 17zM397 362c-35 45 -76 92 -156 92c-82 0 -127 -51 -147 -115 c-8 -25 -12 -54 -12 -86c0 -60 22 -110 51 -144c26 -31 66 -59 117 -61c74 6 111 50 147 96v218z" />
<glyph unicode="r" horiz-adv-x="270" d="M269 431c-18 12 -34 21 -60 21c-51 0 -91 -30 -121 -89v-363h-61v500h61v-56c31 37 66 65 127 65c26 0 54 -10 74 -17z" />
<glyph unicode="s" horiz-adv-x="360" d="M164 46c69 0 104 28 104 84c0 19 -9 35 -26 49s-41 28 -74 43c-40 18 -75 38 -100 66c-19 21 -31 46 -31 83c0 71 47 113 101 131c20 7 41 10 64 10c42 0 86 -14 134 -42l-23 -56c-42 26 -81 40 -116 40c-44 0 -75 -19 -89 -48c-5 -10 -7 -20 -7 -32c0 -40 18 -56 45 -72 c12 -7 29 -15 49 -24c44 -20 81 -38 108 -67c19 -21 29 -43 29 -81c0 -72 -45 -113 -100 -131c-45 -15 -99 -14 -144 3c-24 9 -49 22 -74 40l28 56c24 -22 59 -40 95 -48c10 -2 19 -4 27 -4z" />
<glyph unicode="t" horiz-adv-x="278" d="M276 11c-23 -12 -45 -20 -75 -20c-77 0 -116 46 -116 137v314h-86v58h86v140h62v-140h127v-58h-127v-309c0 -53 11 -85 60 -85c16 0 32 5 50 16z" />
<glyph unicode="u" horiz-adv-x="450" d="M87 223c0 -103 24 -177 125 -177c28 0 54 9 77 25s44 40 63 72v357h62v-500h-62v67c-21 -25 -42 -44 -66 -58s-49 -21 -74 -21c-136 0 -188 81 -188 224v288h63v-277z" />
<glyph unicode="v" horiz-adv-x="458" d="M249 0h-53l-193 500h68l146 -389c2 -6 4 -12 6 -19c2 6 3 11 6 17l151 391h67z" />
<glyph unicode="w" horiz-adv-x="684" d="M477 109c37 128 78 263 116 391h64l-155 -500h-54l-107 369l-1 1v1v-1c-39 -121 -81 -249 -120 -370h-54l-151 500h68l113 -391c0 -1 1 -1 1 -2c42 130 83 262 125 393h43l112 -392v1z" />
<glyph unicode="x" horiz-adv-x="441" d="M252 245c51 -77 113 -168 164 -245h-79l-122 196l-10 -15c-2 -4 -5 -8 -8 -13l-109 -168h-75l166 244c-53 85 -110 171 -163 256h73l110 -177c7 -11 11 -21 18 -30c43 70 87 138 131 207h74z" />
<glyph unicode="y" horiz-adv-x="463" d="M71 -226c-18 0 -34 5 -49 10l20 61c8 -6 18 -9 31 -9c34 0 62 25 83 74l43 103c-61 158 -125 329 -186 487h69l147 -397l3 -12c1 3 2 5 3 8l158 401h67l-239 -593c-22 -54 -48 -105 -101 -125c-14 -6 -31 -8 -49 -8z" />
<glyph unicode="z" horiz-adv-x="437" d="M408 58v-58h-400v29l310 413h-287v58h389v-24l-313 -418h301z" />
<glyph unicode="{" horiz-adv-x="219" d="M208 -154c-94 4 -138 49 -138 147v139c0 69 -25 107 -74 114v47c49 7 74 43 74 106v147c0 98 44 143 138 147v-58c-60 -3 -75 -38 -75 -102v-138c0 -64 -18 -105 -55 -126c37 -21 55 -66 55 -133v-130c0 -63 14 -100 75 -101v-59z" />
<glyph unicode="|" horiz-adv-x="118" d="M25 -226v981h63v-981h-63z" />
<glyph unicode="}" horiz-adv-x="218" d="M6 693c94 -4 140 -48 140 -147v-147c0 -63 23 -99 72 -106v-47c-49 -7 -72 -45 -72 -114v-139c0 -99 -46 -143 -140 -147v59c60 2 75 38 75 101v130c0 68 19 112 57 133c-38 21 -57 62 -57 126v138c0 48 -7 84 -41 96c-9 3 -21 5 -34 6v58z" />
<glyph unicode="~" horiz-adv-x="466" d="M436 353c-5 -76 -42 -133 -119 -133c-32 0 -65 14 -100 42c-32 25 -57 37 -77 37c-38 0 -59 -25 -63 -74h-56c4 77 44 132 120 132c32 0 64 -13 97 -39c17 -14 29 -25 46 -33c11 -5 20 -7 35 -7c36 0 57 25 63 75h54z" />
<glyph unicode="&#xa1;" horiz-adv-x="104" d="M97 461c0 -27 -20 -47 -47 -47s-48 20 -48 47s22 47 48 47c27 0 47 -20 47 -47zM17 -192v504h64v-504h-64z" />
<glyph unicode="&#xa2;" horiz-adv-x="397" d="M384 108c-35 -20 -72 -36 -117 -41v-94h-62v94c-98 10 -159 73 -185 156c-9 29 -14 61 -14 95c0 111 47 189 116 233c25 16 52 27 83 33v95h62v-91c35 -2 75 -13 120 -33l-18 -61c-36 21 -70 33 -102 36v-405c42 5 71 21 100 43zM69 321c0 -81 30 -138 79 -171 c17 -11 36 -20 57 -24v399c-66 -16 -108 -67 -126 -132c-6 -22 -10 -47 -10 -72z" />
<glyph unicode="&#xa3;" horiz-adv-x="441" d="M186 237c0 -83 -29 -137 -70 -179h318v-58h-427v34c55 23 93 69 109 130c5 19 8 37 8 57v90h-107v61h107v127c0 95 39 161 105 190c22 10 47 15 74 15c41 0 79 -11 110 -23l-19 -61c-34 17 -65 26 -93 26c-83 0 -115 -63 -115 -152v-122h144v-61h-144v-74z" />
<glyph unicode="&#xa4;" horiz-adv-x="486" d="M392 239c20 -19 46 -45 66 -63l-42 -42l-63 64c-34 -25 -72 -37 -114 -37c-43 0 -81 12 -113 37l-64 -64l-41 42l64 63c-24 36 -36 73 -36 111c0 44 12 81 36 112c-19 19 -45 44 -64 63l41 42l64 -64c35 24 73 37 113 37c47 0 82 -16 112 -37c19 19 46 45 65 64l41 -42 l-65 -63c24 -31 36 -69 36 -112c0 -41 -12 -77 -36 -111zM240 481c-62 0 -103 -36 -122 -80c-7 -16 -11 -32 -11 -50c0 -39 19 -71 40 -92s53 -40 92 -40s71 18 92 39s39 53 39 93c0 60 -39 102 -82 120c-16 7 -31 10 -48 10z" />
<glyph unicode="&#xa5;" horiz-adv-x="468" d="M436 369v-58h-176v-97h176v-58h-176v-156h-62v156h-175v58h175v97h-175v58h154c-59 107 -119 216 -177 324h70l147 -274c5 -10 7 -19 13 -27c4 11 9 21 15 29c49 89 99 183 148 272h67l-180 -324h156z" />
<glyph unicode="&#xa6;" horiz-adv-x="107" d="M25 336v419h63v-419h-63zM25 -226v419h63v-419h-63z" />
<glyph unicode="&#xa7;" horiz-adv-x="330" d="M282 633c-28 16 -58 28 -98 28c-60 0 -90 -26 -90 -79c0 -28 9 -41 25 -56c25 -23 56 -38 95 -55c67 -31 101 -77 101 -139c0 -50 -21 -95 -66 -133c26 -23 39 -55 39 -94c0 -43 -20 -75 -45 -97c-27 -24 -66 -39 -115 -39c-35 0 -67 11 -94 21c-11 4 -22 9 -32 13l19 59 c21 -12 41 -20 59 -26s34 -9 49 -9c56 0 95 25 95 77c0 33 -16 48 -36 64c-10 7 -24 15 -40 23c-29 14 -52 27 -70 40c-41 30 -66 59 -66 125c0 52 23 93 68 121c-27 23 -50 55 -50 102c0 69 38 111 90 130c19 7 41 10 65 10c43 0 84 -12 115 -25zM199 235 c30 22 52 46 52 97c0 46 -23 62 -55 81c-15 9 -36 20 -62 31c-39 -19 -58 -48 -58 -86c0 -53 26 -74 62 -94c16 -9 37 -18 61 -29z" />
<glyph unicode="&#xa8;" horiz-adv-x="296" d="M268 602c0 -25 -19 -44 -44 -44s-43 19 -43 44c0 24 18 42 42 42c25 0 45 -17 45 -42zM111 602c0 -25 -19 -44 -44 -44c-24 0 -43 19 -43 44c0 24 18 42 42 42s45 -17 45 -42z" />
<glyph unicode="&#xa9;" horiz-adv-x="776" d="M21 345c0 100 35 185 105 254c71 70 156 105 254 105s183 -35 255 -105c71 -70 106 -154 106 -253s-35 -183 -105 -253s-155 -105 -255 -105s-184 35 -255 105c-70 69 -105 153 -105 252zM380 649c-83 0 -153 -29 -213 -89s-90 -131 -90 -215c0 -83 30 -154 89 -214 c59 -59 130 -88 214 -88c85 0 157 30 216 89c60 60 89 131 89 213c0 83 -30 155 -90 215s-131 89 -215 89zM395 94c-74 0 -133 30 -172 69s-71 96 -71 170c0 125 62 207 151 243c30 12 64 18 99 18c42 0 88 -12 137 -36l-24 -52c-38 21 -78 31 -120 31 c-56 0 -99 -22 -128 -52c-31 -32 -53 -80 -53 -141s24 -108 55 -139c30 -30 75 -53 131 -53c39 0 77 12 116 35l26 -49c-55 -30 -104 -44 -147 -44z" />
<glyph unicode="&#xaa;" horiz-adv-x="334" d="M242 562c-2 50 -19 84 -68 84c-20 0 -40 -5 -61 -13s-43 -21 -65 -38l-13 61c31 19 67 35 108 43c12 2 23 3 34 3c84 0 126 -46 126 -138v-227h-61v45c-25 -29 -63 -53 -112 -53c-54 0 -90 26 -106 64c-5 13 -8 27 -8 41c0 73 54 109 114 123c22 5 44 8 67 8 c16 0 30 -1 45 -3zM83 435c0 -33 21 -50 56 -50c53 0 83 28 103 64v58h-3c-1 0 -2 1 -3 1c-17 3 -40 5 -60 5c-57 0 -90 -23 -93 -78z" />
<glyph unicode="&#xab;" horiz-adv-x="387" d="M292 94l-138 168l138 171h78l-140 -171c46 -54 93 -114 139 -168h-77zM143 94l-138 168l138 171h77l-140 -171c11 -13 22 -27 34 -41c18 -21 18 -22 36 -43c23 -27 48 -57 70 -84h-77z" />
<glyph unicode="&#xac;" horiz-adv-x="479" d="M382 69v192h-386v58h445v-250h-59z" />
<glyph unicode="&#xad;" horiz-adv-x="336" d="M27 261v61h276v-61h-276z" />
<glyph unicode="&#xae;" horiz-adv-x="776" d="M21 345c0 100 35 185 105 254c71 70 156 105 254 105s183 -35 255 -105c71 -70 106 -154 106 -253s-35 -183 -105 -253s-155 -105 -255 -105s-184 35 -255 105c-70 69 -105 153 -105 252zM380 649c-83 0 -153 -29 -213 -89s-90 -131 -90 -215c0 -83 30 -154 89 -214 c59 -59 130 -88 214 -88c85 0 157 30 216 89c60 60 89 131 89 213c0 83 -30 155 -90 215s-131 89 -215 89zM305 315v-201h-62v472h133c75 0 132 -25 155 -76c7 -16 11 -33 11 -52c0 -70 -37 -115 -112 -133c44 -70 92 -141 136 -211h-71l-123 201h-67zM305 534v-167h82 c43 0 72 20 85 50c4 10 7 21 7 33c0 56 -35 84 -104 84h-70z" />
<glyph unicode="&#xaf;" horiz-adv-x="415" d="M28 806v61h419v-61h-419z" />
<glyph unicode="&#xb0;" horiz-adv-x="293" d="M145 437c-59 0 -100 37 -118 79c-7 16 -10 32 -10 50c0 59 36 99 77 117c15 7 32 10 49 10c59 0 101 -36 119 -78c7 -15 10 -32 10 -49c0 -60 -35 -100 -77 -119c-15 -7 -32 -10 -50 -10zM145 638c-33 0 -55 -21 -65 -44c-4 -9 -6 -18 -6 -28c0 -34 19 -57 42 -68 c8 -4 17 -6 27 -6c33 0 55 21 65 45c4 9 6 19 6 29c0 33 -19 57 -42 67c-8 4 -18 5 -27 5z" />
<glyph unicode="&#xb1;" horiz-adv-x="448" d="M250 297v-193h-59v193h-193v59h193v193h59v-193h193v-59h-193zM-2 0v58h445v-58h-445z" />
<glyph unicode="&#xb2;" horiz-adv-x="329" d="M40 807c34 23 67 41 116 41c58 0 98 -25 115 -67c6 -14 9 -30 9 -47c0 -32 -8 -55 -21 -78c-22 -38 -50 -67 -85 -101l-76 -74h183v-61h-262v60l114 113c30 29 52 51 70 81c10 17 15 30 15 54c0 42 -22 63 -65 63c-32 0 -69 -20 -113 -58v74z" />
<glyph unicode="&#xb3;" horiz-adv-x="329" d="M191 639c39 -16 67 -50 67 -102c0 -62 -34 -102 -81 -119c-18 -7 -38 -9 -60 -9c-36 0 -69 8 -100 25v68c39 -25 73 -37 101 -37c48 0 81 26 81 72s-34 69 -101 69h-42v57h38c61 0 92 23 92 71c0 37 -21 55 -63 55c-20 0 -50 -10 -90 -31v64c29 14 60 24 98 24 c54 0 91 -24 107 -63c5 -13 8 -27 8 -43c0 -47 -19 -81 -55 -101z" />
<glyph unicode="&#xb4;" horiz-adv-x="175" d="M54 558h-65l124 173h72z" />
<glyph unicode="&#xb5;" horiz-adv-x="433" d="M90 223c0 -102 25 -177 125 -177c72 0 112 46 130 102c7 21 10 45 10 70v282h62v-500h-62v65c-35 -51 -83 -77 -147 -77c-49 0 -89 16 -118 46v-218h-62v684h62v-277z" />
<glyph unicode="&#xb6;" horiz-adv-x="401" d="M319 633v-633h-59v633h-74v-633h-60v425c-55 4 -91 40 -108 83c-6 15 -9 32 -9 50c0 64 34 106 80 125c16 6 32 10 50 10h242v-60h-62z" />
<glyph unicode="&#xb7;" horiz-adv-x="127" d="M63 388c26 0 48 -20 48 -46c0 -27 -21 -48 -48 -48s-47 22 -47 48c0 27 20 46 47 46z" />
<glyph unicode="&#xb8;" horiz-adv-x="202" d="M77 -86c-14 0 -26 -2 -40 -4v109h53v-55c71 -2 106 -29 106 -79c0 -60 -43 -89 -129 -89c-11 0 -27 1 -47 3v54c23 -3 40 -4 50 -4c44 0 66 11 66 33c0 21 -20 32 -59 32z" />
<glyph unicode="&#xb9;" horiz-adv-x="329" d="M257 420h-240v58h92v298c-29 -10 -70 -23 -98 -33v61l157 50v-376h89v-58z" />
<glyph unicode="&#xba;" horiz-adv-x="389" d="M191 327c-85 0 -138 48 -161 112c-8 23 -12 48 -12 75c0 90 41 149 105 175c21 9 45 13 71 13c85 0 136 -45 158 -109c8 -23 12 -49 12 -78c0 -86 -40 -146 -101 -173c-21 -10 -46 -15 -72 -15zM300 516c0 76 -34 130 -107 130c-57 0 -90 -34 -104 -78 c-5 -16 -8 -34 -8 -55c0 -59 24 -102 65 -120c14 -6 29 -9 46 -9c75 0 108 54 108 132z" />
<glyph unicode="&#xbb;" horiz-adv-x="389" d="M238 94h-77l140 172c-46 55 -95 112 -141 167h78l138 -168zM90 94h-80l142 172c-47 55 -96 112 -142 167h79l138 -167z" />
<glyph unicode="&#xbc;" horiz-adv-x="701" d="M617 103c-10 -32 -22 -71 -32 -103h-23v103h-185v43l185 272h57v-260h52v-55h-54zM174 274h-59v356c-29 -10 -70 -23 -98 -33v61l157 50v-434zM179 0h-5l353 693h67zM562 158v166c-2 -3 -3 -6 -5 -8l-105 -158h110z" />
<glyph unicode="&#xbd;" horiz-adv-x="737" d="M180 0h-67l416 693h67zM707 0h-262v60l116 113c18 18 32 33 43 46c22 26 40 46 40 89c0 42 -22 62 -65 62c-33 0 -70 -19 -113 -57v74c40 27 78 41 116 41c59 0 99 -26 116 -68c6 -14 8 -30 8 -47c0 -32 -8 -52 -21 -76c-21 -38 -49 -68 -84 -102l-77 -74h183v-61z M174 274h-59v356c-29 -10 -69 -23 -98 -33v61l157 50v-434z" />
<glyph unicode="&#xbe;" horiz-adv-x="714" d="M628 103c-10 -33 -21 -71 -31 -103h-24v103h-184v43l185 272h57v-260h52v-55h-55zM189 493c39 -16 67 -50 67 -102c0 -62 -34 -102 -81 -119c-18 -7 -38 -9 -60 -9c-36 0 -69 8 -100 25v68c39 -25 73 -37 101 -37c48 0 81 26 81 72s-34 69 -101 69h-42v57h38 c61 0 92 23 92 71c0 37 -21 55 -63 55c-20 0 -50 -10 -90 -31v64c29 14 60 24 98 24c54 0 91 -24 107 -63c5 -13 8 -27 8 -43c0 -47 -19 -81 -55 -101zM190 0h-67l416 693h67zM573 158v166c-2 -4 -3 -7 -4 -8l-106 -158h110z" />
<glyph unicode="&#xbf;" horiz-adv-x="351" d="M211 313c8 -21 15 -49 15 -78c0 -52 -24 -84 -50 -111c-37 -38 -85 -69 -104 -125c-4 -13 -7 -26 -7 -41c0 -65 44 -101 109 -101c61 0 110 27 140 59l37 -47c-47 -42 -92 -73 -177 -73c-79 0 -134 36 -159 91c-9 20 -14 42 -14 67c0 80 48 123 89 163c26 24 46 41 63 66 c11 15 16 28 16 51c0 27 -9 58 -15 79h57zM141 461c0 28 19 47 47 47c27 0 47 -20 47 -47s-20 -47 -47 -47s-47 19 -47 47z" />
<glyph unicode="&#xc0;" d="M154 212c-25 -68 -53 -144 -78 -212h-73l265 700h58l261 -700h-73l-78 212h-282zM302 576h1c-3 8 -5 14 -8 23c-40 -112 -77 -214 -118 -325h236zM330 758l-131 173h73l123 -173h-65z" />
<glyph unicode="&#xc1;" d="M154 212c-25 -68 -53 -144 -78 -212h-73l265 700h58l261 -700h-73l-78 212h-282zM302 576h1c-3 8 -5 14 -8 23c-40 -112 -77 -214 -118 -325h236zM265 758h-65l124 173h72z" />
<glyph unicode="&#xc2;" d="M154 212c-25 -68 -53 -144 -78 -212h-73l265 700h58l261 -700h-73l-78 212h-282zM302 576h1c-3 8 -5 14 -8 23c-40 -112 -77 -214 -118 -325h236zM297 863c-21 -31 -49 -73 -70 -105h-61l116 177h32l114 -177h-63z" />
<glyph unicode="&#xc3;" d="M154 212c-25 -68 -53 -144 -78 -212h-73l265 700h58l261 -700h-73l-78 212h-282zM302 576h1c-3 8 -5 14 -8 23c-40 -112 -77 -214 -118 -325h236zM452 888c0 -55 -18 -97 -55 -115c-12 -6 -25 -9 -39 -9c-31 0 -57 20 -77 38c-18 16 -35 23 -50 23c-26 0 -38 -22 -38 -67 h-52c0 54 19 95 54 114c11 6 23 9 37 9c25 0 53 -12 82 -36c10 -8 18 -16 26 -20s16 -6 23 -6c10 0 18 5 25 17s10 30 10 52h54z" />
<glyph unicode="&#xc4;" d="M154 212c-25 -68 -53 -144 -78 -212h-73l265 700h58l261 -700h-73l-78 212h-282zM302 576h1c-3 8 -5 14 -8 23c-40 -112 -77 -214 -118 -325h236zM419 802c0 -25 -19 -44 -44 -44s-43 19 -43 44c0 24 18 42 42 42c25 0 45 -17 45 -42zM262 802c0 -25 -19 -44 -44 -44 c-24 0 -43 19 -43 44c0 24 18 42 42 42s45 -17 45 -42z" />
<glyph unicode="&#xc5;" horiz-adv-x="600" d="M154 212c-25 -68 -53 -144 -78 -212h-72l248 656c-40 16 -61 46 -61 90c0 47 30 77 65 90c13 5 26 7 40 7c49 0 81 -23 97 -57c6 -12 8 -25 8 -40c0 -42 -19 -72 -59 -89c80 -215 165 -442 245 -657h-73l-77 212h-283zM303 576c-3 8 -5 14 -8 23 c-40 -112 -76 -214 -117 -325h235zM348 746c0 30 -22 46 -52 46s-50 -16 -50 -46c0 -28 22 -46 50 -46c29 0 52 18 52 46z" />
<glyph unicode="&#xc7;" horiz-adv-x="582" d="M521 589c-44 36 -97 61 -171 61c-84 0 -147 -37 -189 -84c-44 -51 -74 -125 -74 -218c0 -137 56 -234 151 -276c32 -14 67 -22 106 -22c64 0 121 18 169 55l32 -53c-57 -42 -124 -64 -200 -64c-106 0 -185 41 -237 99c-54 59 -88 146 -88 256c0 173 74 290 197 342 c42 18 89 26 141 26c84 0 147 -29 198 -67zM258 -86c-14 0 -26 -2 -40 -4v109h53v-55c71 -2 106 -29 106 -79c0 -60 -43 -89 -129 -89c-11 0 -27 1 -47 3v54c23 -3 40 -4 50 -4c44 0 66 11 66 33c0 21 -20 32 -59 32z" />
<glyph unicode="&#xc8;" horiz-adv-x="383" d="M31 0v700h337v-62h-271v-254h252v-62h-252v-260h287v-62h-353zM222 758l-131 173h73l123 -173h-65z" />
<glyph unicode="&#xc9;" horiz-adv-x="383" d="M31 0v700h337v-62h-271v-254h252v-62h-252v-260h287v-62h-353zM157 758h-65l124 173h72z" />
<glyph unicode="&#xca;" horiz-adv-x="383" d="M31 0v700h337v-62h-271v-254h252v-62h-252v-260h287v-62h-353zM189 863c-21 -31 -49 -73 -70 -105h-61l116 177h32l114 -177h-63z" />
<glyph unicode="&#xcb;" horiz-adv-x="383" d="M31 0v700h337v-62h-271v-254h252v-62h-252v-260h287v-62h-353zM311 802c0 -25 -19 -44 -44 -44s-43 19 -43 44c0 24 18 42 42 42c25 0 45 -17 45 -42zM154 802c0 -25 -19 -44 -44 -44c-24 0 -43 19 -43 44c0 24 18 42 42 42s45 -17 45 -42z" />
<glyph unicode="&#xcc;" horiz-adv-x="226" d="M94 700v-700h-66v700h66zM65 728l-131 173h73l123 -173h-65z" />
<glyph unicode="&#xcd;" horiz-adv-x="226" d="M94 700v-700h-66v700h66zM70 728h-65l124 173h72z" />
<glyph unicode="&#xce;" horiz-adv-x="226" d="M94 700v-700h-66v700h66zM64 833c-21 -31 -49 -73 -70 -105h-61l116 177h32l114 -177h-63z" />
<glyph unicode="&#xcf;" horiz-adv-x="226" d="M94 700v-700h-66v700h66zM184 772c0 -25 -19 -44 -44 -44s-43 19 -43 44c0 24 18 42 42 42c25 0 45 -17 45 -42zM27 772c0 -25 -19 -44 -44 -44c-24 0 -43 19 -43 44c0 24 18 42 42 42s45 -17 45 -42z" />
<glyph unicode="&#xd0;" horiz-adv-x="649" d="M267 700c229 0 356 -114 356 -341c0 -114 -39 -201 -98 -260c-60 -60 -151 -99 -268 -99h-170v317h-71v61h71v322h180zM153 638v-260h192v-61h-192v-255h97c149 0 245 60 285 169c14 37 20 79 20 127c0 187 -98 280 -295 280h-107z" />
<glyph unicode="&#xd1;" horiz-adv-x="603" d="M96 0h-66v700h51l405 -550c4 -6 9 -11 13 -17c0 5 -1 9 -1 13v554h66v-700h-47l-409 554c-4 5 -8 12 -12 17v-571zM454 888c0 -55 -18 -97 -55 -115c-12 -6 -25 -9 -39 -9c-31 0 -57 20 -77 38c-18 16 -35 23 -50 23c-26 0 -38 -22 -38 -67h-52c0 54 19 95 54 114 c11 6 23 9 37 9c25 0 53 -12 82 -36c10 -8 18 -16 26 -20s16 -6 23 -6c10 0 18 5 25 17s10 30 10 52h54z" />
<glyph unicode="&#xd2;" horiz-adv-x="706" d="M346 -12c-106 0 -185 41 -237 99c-54 59 -88 146 -88 256c0 173 74 290 197 342c42 18 89 26 141 26c102 0 178 -41 229 -97c53 -58 88 -145 88 -254c0 -174 -72 -294 -194 -346c-41 -17 -86 -26 -136 -26zM351 650c-84 0 -147 -37 -189 -84c-44 -51 -74 -125 -74 -218 c0 -138 56 -233 151 -276c32 -14 67 -22 106 -22c134 0 213 73 246 176c12 37 18 79 18 127c0 138 -54 236 -151 277c-32 14 -68 20 -107 20zM384 758l-131 173h73l123 -173h-65z" />
<glyph unicode="&#xd3;" horiz-adv-x="706" d="M346 -12c-106 0 -185 41 -237 99c-54 59 -88 146 -88 256c0 173 74 290 197 342c42 18 89 26 141 26c102 0 178 -41 229 -97c53 -58 88 -145 88 -254c0 -174 -72 -294 -194 -346c-41 -17 -86 -26 -136 -26zM351 650c-84 0 -147 -37 -189 -84c-44 -51 -74 -125 -74 -218 c0 -138 56 -233 151 -276c32 -14 67 -22 106 -22c134 0 213 73 246 176c12 37 18 79 18 127c0 138 -54 236 -151 277c-32 14 -68 20 -107 20zM319 758h-65l124 173h72z" />
<glyph unicode="&#xd4;" horiz-adv-x="706" d="M346 -12c-106 0 -185 41 -237 99c-54 59 -88 146 -88 256c0 173 74 290 197 342c42 18 89 26 141 26c102 0 178 -41 229 -97c53 -58 88 -145 88 -254c0 -174 -72 -294 -194 -346c-41 -17 -86 -26 -136 -26zM351 650c-84 0 -147 -37 -189 -84c-44 -51 -74 -125 -74 -218 c0 -138 56 -233 151 -276c32 -14 67 -22 106 -22c134 0 213 73 246 176c12 37 18 79 18 127c0 138 -54 236 -151 277c-32 14 -68 20 -107 20zM351 863c-21 -31 -49 -73 -70 -105h-61l116 177h32l114 -177h-63z" />
<glyph unicode="&#xd5;" horiz-adv-x="706" d="M346 -12c-106 0 -185 41 -237 99c-54 59 -88 146 -88 256c0 173 74 290 197 342c42 18 89 26 141 26c102 0 178 -41 229 -97c53 -58 88 -145 88 -254c0 -174 -72 -294 -194 -346c-41 -17 -86 -26 -136 -26zM351 650c-84 0 -147 -37 -189 -84c-44 -51 -74 -125 -74 -218 c0 -138 56 -233 151 -276c32 -14 67 -22 106 -22c134 0 213 73 246 176c12 37 18 79 18 127c0 138 -54 236 -151 277c-32 14 -68 20 -107 20zM506 888c0 -55 -18 -97 -55 -115c-12 -6 -25 -9 -39 -9c-31 0 -57 20 -77 38c-18 16 -35 23 -50 23c-26 0 -38 -22 -38 -67h-52 c0 54 19 95 54 114c11 6 23 9 37 9c25 0 53 -12 82 -36c10 -8 18 -16 26 -20s16 -6 23 -6c10 0 18 5 25 17s10 30 10 52h54z" />
<glyph unicode="&#xd6;" horiz-adv-x="706" d="M346 -12c-106 0 -185 41 -237 99c-54 59 -88 146 -88 256c0 173 74 290 197 342c42 18 89 26 141 26c102 0 178 -41 229 -97c53 -58 88 -145 88 -254c0 -174 -72 -294 -194 -346c-41 -17 -86 -26 -136 -26zM351 650c-84 0 -147 -37 -189 -84c-44 -51 -74 -125 -74 -218 c0 -138 56 -233 151 -276c32 -14 67 -22 106 -22c134 0 213 73 246 176c12 37 18 79 18 127c0 138 -54 236 -151 277c-32 14 -68 20 -107 20zM473 802c0 -25 -19 -44 -44 -44s-43 19 -43 44c0 24 18 42 42 42c25 0 45 -17 45 -42zM316 802c0 -25 -19 -44 -44 -44 c-24 0 -43 19 -43 44c0 24 18 42 42 42s45 -17 45 -42z" />
<glyph unicode="&#xd7;" horiz-adv-x="444" d="M218 331l157 157l42 -41l-158 -157l158 -158l-42 -40l-157 158c-50 -50 -106 -108 -156 -158l-42 40l157 158c-38 38 -38 37 -79 78c-27 27 -53 54 -78 79l42 41z" />
<glyph unicode="&#xd8;" horiz-adv-x="717" d="M357 -12c-96 0 -162 29 -216 77l-81 -95l-45 36l87 103c-47 64 -71 142 -71 234c0 173 75 290 198 342c42 18 89 26 141 26c79 0 140 -23 188 -58c20 24 47 56 67 79l44 -37l-67 -81c54 -61 86 -143 86 -254c0 -117 -35 -209 -91 -272c-53 -59 -133 -100 -240 -100z M517 603c-40 29 -89 47 -155 47c-84 0 -147 -37 -189 -84c-45 -51 -74 -125 -74 -218c0 -77 17 -138 47 -186zM356 50c134 0 213 73 246 176c12 37 18 79 18 127c0 88 -24 159 -62 210l-375 -447c45 -44 103 -66 173 -66z" />
<glyph unicode="&#xd9;" horiz-adv-x="647" d="M517 282c0 -196 -84 -294 -252 -294c-160 0 -240 94 -240 283v429h66v-422c0 -152 61 -228 183 -228c118 0 177 74 177 221v429h66v-418zM293 728l-131 173h73l123 -173h-65z" />
<glyph unicode="&#xda;" horiz-adv-x="647" d="M517 282c0 -196 -84 -294 -252 -294c-160 0 -240 94 -240 283v429h66v-422c0 -152 61 -228 183 -228c118 0 177 74 177 221v429h66v-418zM267 727h-65l124 173h72z" />
<glyph unicode="&#xdb;" horiz-adv-x="647" d="M517 282c0 -196 -84 -294 -252 -294c-160 0 -240 94 -240 283v429h66v-422c0 -152 61 -228 183 -228c118 0 177 74 177 221v429h66v-418zM291 833c-21 -31 -49 -73 -70 -105h-61l116 177h32l114 -177h-63z" />
<glyph unicode="&#xdc;" horiz-adv-x="647" d="M517 282c0 -196 -84 -294 -252 -294c-160 0 -240 94 -240 283v429h66v-422c0 -152 61 -228 183 -228c118 0 177 74 177 221v429h66v-418zM407 772c0 -25 -19 -44 -44 -44s-43 19 -43 44c0 24 18 42 42 42c25 0 45 -17 45 -42zM250 772c0 -25 -19 -44 -44 -44 c-24 0 -43 19 -43 44c0 24 18 42 42 42s45 -17 45 -42z" />
<glyph unicode="&#xdd;" horiz-adv-x="540" d="M248 335c60 121 125 244 185 365h71l-226 -434v-266h-65v265c-71 144 -143 291 -214 435h74l161 -333c5 -10 9 -21 14 -32zM203 743h-65l124 173h72z" />
<glyph unicode="&#xde;" horiz-adv-x="427" d="M93 161v-161h-66v700h66v-113h108c150 0 226 -67 226 -201c0 -111 -61 -179 -144 -209c-31 -11 -65 -16 -103 -16h-87zM181 222c111 0 178 50 178 158c0 97 -55 145 -166 145h-100v-303h88z" />
<glyph unicode="&#xdf;" horiz-adv-x="449" d="M156 62c22 -8 45 -16 71 -16c66 0 108 36 126 85c6 17 9 36 9 57c0 52 -22 89 -51 115c-35 32 -85 51 -144 61v53c96 22 144 72 144 149c0 69 -37 115 -105 115c-102 0 -118 -82 -118 -188v-492h-62v498c0 84 15 148 51 190c30 34 72 50 133 50c80 0 130 -41 153 -99 c8 -21 12 -43 12 -68c0 -80 -35 -139 -106 -176c69 -24 122 -70 146 -138c7 -21 11 -44 11 -67c0 -95 -49 -158 -117 -187c-24 -10 -51 -16 -80 -16c-27 0 -57 10 -78 18c-8 3 -15 6 -19 9z" />
<glyph unicode="&#xe0;" horiz-adv-x="494" d="M332 292c0 91 -23 162 -108 162c-54 0 -103 -20 -149 -61l-39 41c50 52 114 78 193 78c114 0 165 -72 165 -190v-322h-62v55c-28 -28 -70 -50 -114 -61c-15 -4 -30 -6 -44 -6c-74 0 -124 35 -146 88c-7 18 -11 36 -11 57c2 123 104 165 228 165c30 0 61 -2 87 -6z M331 236c-23 5 -52 7 -80 7c-68 0 -126 -16 -155 -55c-10 -14 -15 -32 -15 -53c0 -57 40 -89 98 -89c43 0 79 12 107 34v-1c13 10 23 20 30 29s13 17 15 24v104zM213 558l-131 173h73l123 -173h-65z" />
<glyph unicode="&#xe1;" horiz-adv-x="494" d="M332 292c0 91 -23 162 -108 162c-54 0 -103 -20 -149 -61l-39 41c50 52 114 78 193 78c114 0 165 -72 165 -190v-322h-62v55c-28 -28 -70 -50 -114 -61c-15 -4 -30 -6 -44 -6c-74 0 -124 35 -146 88c-7 18 -11 36 -11 57c2 123 104 165 228 165c30 0 61 -2 87 -6z M331 236c-23 5 -52 7 -80 7c-68 0 -126 -16 -155 -55c-10 -14 -15 -32 -15 -53c0 -57 40 -89 98 -89c43 0 79 12 107 34v-1c13 10 23 20 30 29s13 17 15 24v104zM164 558h-65l124 173h72z" />
<glyph unicode="&#xe2;" horiz-adv-x="494" d="M332 292c0 91 -23 162 -108 162c-54 0 -103 -20 -149 -61l-39 41c50 52 114 78 193 78c114 0 165 -72 165 -190v-322h-62v55c-28 -28 -70 -50 -114 -61c-15 -4 -30 -6 -44 -6c-74 0 -124 35 -146 88c-7 18 -11 36 -11 57c2 123 104 165 228 165c30 0 61 -2 87 -6z M331 236c-23 5 -52 7 -80 7c-68 0 -126 -16 -155 -55c-10 -14 -15 -32 -15 -53c0 -57 40 -89 98 -89c43 0 79 12 107 34v-1c13 10 23 20 30 29s13 17 15 24v104zM198 663c-21 -31 -49 -73 -70 -105h-61l116 177h32l114 -177h-63z" />
<glyph unicode="&#xe3;" horiz-adv-x="494" d="M332 292c0 91 -23 162 -108 162c-54 0 -103 -20 -149 -61l-39 41c50 52 114 78 193 78c114 0 165 -72 165 -190v-322h-62v55c-28 -28 -70 -50 -114 -61c-15 -4 -30 -6 -44 -6c-74 0 -124 35 -146 88c-7 18 -11 36 -11 57c2 123 104 165 228 165c30 0 61 -2 87 -6z M331 236c-23 5 -52 7 -80 7c-68 0 -126 -16 -155 -55c-10 -14 -15 -32 -15 -53c0 -57 40 -89 98 -89c43 0 79 12 107 34v-1c13 10 23 20 30 29s13 17 15 24v104zM409 688c0 -55 -18 -97 -55 -115c-12 -6 -25 -9 -39 -9c-31 0 -57 20 -77 38c-18 16 -35 23 -50 23 c-26 0 -38 -22 -38 -67h-52c0 54 19 95 54 114c11 6 23 9 37 9c25 0 53 -12 82 -36c10 -8 18 -16 26 -20s16 -6 23 -6c10 0 18 5 25 17s10 30 10 52h54z" />
<glyph unicode="&#xe4;" horiz-adv-x="494" d="M332 292c0 91 -23 162 -108 162c-54 0 -103 -20 -149 -61l-39 41c50 52 114 78 193 78c114 0 165 -72 165 -190v-322h-62v55c-28 -28 -70 -50 -114 -61c-15 -4 -30 -6 -44 -6c-74 0 -124 35 -146 88c-7 18 -11 36 -11 57c2 123 104 165 228 165c30 0 61 -2 87 -6z M331 236c-23 5 -52 7 -80 7c-68 0 -126 -16 -155 -55c-10 -14 -15 -32 -15 -53c0 -57 40 -89 98 -89c43 0 79 12 107 34v-1c13 10 23 20 30 29s13 17 15 24v104zM312 602c0 -25 -19 -44 -44 -44s-43 19 -43 44c0 24 18 42 42 42c25 0 45 -17 45 -42zM155 602 c0 -25 -19 -44 -44 -44c-24 0 -43 19 -43 44c0 24 18 42 42 42s45 -17 45 -42z" />
<glyph unicode="&#xe5;" horiz-adv-x="414" d="M240 558c-48 0 -81 24 -96 57c-5 12 -8 24 -8 39c0 46 29 76 63 89c13 5 26 7 41 7c48 0 81 -23 96 -57c5 -12 8 -25 8 -39c0 -46 -29 -76 -63 -89c-13 -5 -27 -7 -41 -7zM292 654c0 29 -23 46 -52 46s-50 -17 -50 -46c0 -28 21 -46 50 -46s52 18 52 46zM216 454 c-65 0 -112 -27 -150 -61l-39 41c50 52 114 78 193 78c114 0 165 -72 165 -190v-322h-62v55c-28 -28 -70 -50 -114 -61c-15 -4 -29 -6 -43 -6c-75 0 -125 35 -147 88c-7 18 -11 37 -11 58c8 80 56 132 123 153c22 7 44 11 68 11c50 0 90 -12 124 -32c0 19 -1 38 -1 57 c-3 76 -32 131 -106 131zM322 206c-34 22 -70 37 -118 37c-58 0 -101 -25 -121 -64c-7 -13 -11 -28 -11 -44c0 -57 40 -89 98 -89c43 0 79 12 107 34v-1c13 10 24 20 31 29s12 17 14 24v74z" />
<glyph unicode="&#xe7;" horiz-adv-x="443" d="M403 36c-38 -28 -85 -48 -147 -48c-78 0 -136 30 -174 73c-39 43 -63 106 -63 186c0 126 53 211 143 247c30 12 63 18 99 18c54 0 102 -15 144 -46l-34 -49c-32 24 -70 37 -112 37c-90 0 -142 -52 -164 -121c-8 -26 -12 -54 -12 -87c0 -93 37 -156 101 -185 c22 -10 46 -15 73 -15c44 0 83 14 116 41zM246 -86c-14 0 -26 -2 -40 -4v109h53v-55c71 -2 106 -29 106 -79c0 -60 -43 -89 -129 -89c-11 0 -27 1 -47 3v54c23 -3 40 -4 50 -4c44 0 66 11 66 33c0 21 -20 32 -59 32z" />
<glyph unicode="&#xe8;" horiz-adv-x="504" d="M245 46c52 0 101 20 146 57l30 -50c-60 -43 -123 -65 -186 -65c-71 0 -123 29 -157 70c-38 45 -59 112 -59 195c0 77 25 140 62 183c36 42 90 76 163 76c103 0 159 -61 182 -143c8 -30 12 -64 12 -101v-29h-355c3 -86 35 -151 96 -179c20 -9 42 -14 66 -14zM374 297 c-5 89 -43 157 -132 157c-94 0 -143 -70 -157 -157h289zM238 558l-131 173h73l123 -173h-65z" />
<glyph unicode="&#xe9;" horiz-adv-x="504" d="M245 46c52 0 101 20 146 57l30 -50c-60 -43 -123 -65 -186 -65c-71 0 -123 29 -157 70c-38 45 -59 112 -59 195c0 77 25 140 62 183c36 42 90 76 163 76c103 0 159 -61 182 -143c8 -30 12 -64 12 -101v-29h-355c3 -86 35 -151 96 -179c20 -9 42 -14 66 -14zM374 297 c-5 89 -43 157 -132 157c-94 0 -143 -70 -157 -157h289zM182 558h-65l124 173h72z" />
<glyph unicode="&#xea;" horiz-adv-x="504" d="M245 46c52 0 101 20 146 57l30 -50c-60 -43 -123 -65 -186 -65c-71 0 -123 29 -157 70c-38 45 -59 112 -59 195c0 77 25 140 62 183c36 42 90 76 163 76c103 0 159 -61 182 -143c8 -30 12 -64 12 -101v-29h-355c3 -86 35 -151 96 -179c20 -9 42 -14 66 -14zM374 297 c-5 89 -43 157 -132 157c-94 0 -143 -70 -157 -157h289zM215 663c-21 -31 -49 -73 -70 -105h-61l116 177h32l114 -177h-63z" />
<glyph unicode="&#xeb;" horiz-adv-x="504" d="M245 46c52 0 101 20 146 57l30 -50c-60 -43 -123 -65 -186 -65c-71 0 -123 29 -157 70c-38 45 -59 112 -59 195c0 77 25 140 62 183c36 42 90 76 163 76c103 0 159 -61 182 -143c8 -30 12 -64 12 -101v-29h-355c3 -86 35 -151 96 -179c20 -9 42 -14 66 -14zM374 297 c-5 89 -43 157 -132 157c-94 0 -143 -70 -157 -157h289zM330 602c0 -25 -19 -44 -44 -44s-43 19 -43 44c0 24 18 42 42 42c25 0 45 -17 45 -42zM173 602c0 -25 -19 -44 -44 -44c-24 0 -43 19 -43 44c0 24 18 42 42 42s45 -17 45 -42z" />
<glyph unicode="&#xec;" horiz-adv-x="185" d="M99 0v500h62v-500h-62zM114 558l-130 173h72l124 -173h-66z" />
<glyph unicode="&#xed;" horiz-adv-x="177" d="M38 0v500h62v-500h-62zM-2 558h-65l123 173h72z" />
<glyph unicode="&#xee;" horiz-adv-x="248" d="M89 0v500h62v-500h-62zM73 663c-21 -31 -49 -73 -70 -105h-61l116 177h31l116 -177h-63z" />
<glyph unicode="&#xef;" horiz-adv-x="242" d="M86 0v500h62v-500h-62zM191 602c0 -25 -20 -44 -45 -44s-42 19 -42 44c0 24 18 42 42 42c25 0 45 -17 45 -42zM34 602c0 -25 -19 -44 -44 -44c-24 0 -43 19 -43 44c0 24 18 42 42 42s45 -17 45 -42z" />
<glyph unicode="&#xf0;" horiz-adv-x="485" d="M269 659c45 22 100 49 145 71l24 -50l-128 -63c46 -50 84 -110 111 -176c22 -56 38 -120 38 -192c0 -118 -49 -203 -129 -241c-27 -13 -58 -20 -93 -20c-116 0 -181 63 -209 153c-10 32 -15 67 -15 106c0 121 52 207 135 245c28 13 60 20 94 20c33 0 63 -7 89 -22 c-23 37 -49 70 -78 99l-142 -71l-25 49l125 61c-39 34 -86 70 -130 102h102c32 -22 57 -43 86 -71zM242 454c-85 0 -132 -57 -153 -124c-8 -26 -12 -53 -12 -84c0 -91 32 -158 94 -186c20 -9 42 -14 67 -14c83 0 127 54 146 120c7 25 11 53 11 84c0 136 -51 204 -153 204z " />
<glyph unicode="&#xf1;" horiz-adv-x="535" d="M90 440c33 41 74 72 139 72c46 0 83 -21 109 -47c32 -32 54 -81 54 -146v-319h-62v302c0 101 -37 152 -112 152c-63 -7 -101 -42 -128 -91v-363h-62v500h62v-60zM444 688c0 -55 -18 -97 -55 -115c-12 -6 -25 -9 -39 -9c-31 0 -57 20 -77 38c-18 16 -35 23 -50 23 c-26 0 -38 -22 -38 -67h-52c0 54 19 95 54 114c11 6 23 9 37 9c25 0 53 -12 82 -36c10 -8 18 -16 26 -20s16 -6 23 -6c10 0 18 5 25 17s10 30 10 52h54z" />
<glyph unicode="&#xf2;" horiz-adv-x="561" d="M257 -12c-78 0 -136 30 -174 73c-39 43 -63 106 -63 186c0 126 53 211 143 247c30 12 63 18 99 18c117 0 186 -64 216 -153c11 -32 16 -69 16 -110c0 -121 -54 -204 -139 -241c-29 -13 -62 -20 -98 -20zM430 250c0 123 -52 204 -170 204c-90 0 -142 -52 -164 -121 c-8 -26 -13 -54 -13 -87c0 -92 38 -156 102 -185c21 -10 46 -15 73 -15c89 0 139 48 160 118c8 25 12 54 12 86zM249 558l-131 173h73l123 -173h-65z" />
<glyph unicode="&#xf3;" horiz-adv-x="561" d="M257 -12c-78 0 -136 30 -174 73c-39 43 -63 106 -63 186c0 126 53 211 143 247c30 12 63 18 99 18c117 0 186 -64 216 -153c11 -32 16 -69 16 -110c0 -121 -54 -204 -139 -241c-29 -13 -62 -20 -98 -20zM430 250c0 123 -52 204 -170 204c-90 0 -142 -52 -164 -121 c-8 -26 -13 -54 -13 -87c0 -92 38 -156 102 -185c21 -10 46 -15 73 -15c89 0 139 48 160 118c8 25 12 54 12 86zM207 558h-65l124 173h72z" />
<glyph unicode="&#xf4;" horiz-adv-x="561" d="M257 -12c-78 0 -136 30 -174 73c-39 43 -63 106 -63 186c0 126 53 211 143 247c30 12 63 18 99 18c117 0 186 -64 216 -153c11 -32 16 -69 16 -110c0 -121 -54 -204 -139 -241c-29 -13 -62 -20 -98 -20zM430 250c0 123 -52 204 -170 204c-90 0 -142 -52 -164 -121 c-8 -26 -13 -54 -13 -87c0 -92 38 -156 102 -185c21 -10 46 -15 73 -15c89 0 139 48 160 118c8 25 12 54 12 86zM236 663c-21 -31 -49 -73 -70 -105h-61l116 177h32l114 -177h-63z" />
<glyph unicode="&#xf5;" horiz-adv-x="561" d="M257 -12c-78 0 -136 30 -174 73c-39 43 -63 106 -63 186c0 126 53 211 143 247c30 12 63 18 99 18c117 0 186 -64 216 -153c11 -32 16 -69 16 -110c0 -121 -54 -204 -139 -241c-29 -13 -62 -20 -98 -20zM430 250c0 123 -52 204 -170 204c-90 0 -142 -52 -164 -121 c-8 -26 -13 -54 -13 -87c0 -92 38 -156 102 -185c21 -10 46 -15 73 -15c89 0 139 48 160 118c8 25 12 54 12 86zM452 688c0 -55 -18 -97 -55 -115c-12 -6 -25 -9 -39 -9c-31 0 -57 20 -77 38c-18 16 -35 23 -50 23c-26 0 -38 -22 -38 -67h-52c0 54 19 95 54 114 c11 6 23 9 37 9c25 0 53 -12 82 -36c10 -8 18 -16 26 -20s16 -6 23 -6c10 0 18 5 25 17s10 30 10 52h54z" />
<glyph unicode="&#xf6;" horiz-adv-x="561" d="M257 -12c-78 0 -136 30 -174 73c-39 43 -63 106 -63 186c0 126 53 211 143 247c30 12 63 18 99 18c117 0 186 -64 216 -153c11 -32 16 -69 16 -110c0 -121 -54 -204 -139 -241c-29 -13 -62 -20 -98 -20zM430 250c0 123 -52 204 -170 204c-90 0 -142 -52 -164 -121 c-8 -26 -13 -54 -13 -87c0 -92 38 -156 102 -185c21 -10 46 -15 73 -15c89 0 139 48 160 118c8 25 12 54 12 86zM353 602c0 -25 -19 -44 -44 -44s-43 19 -43 44c0 24 18 42 42 42c25 0 45 -17 45 -42zM196 602c0 -25 -19 -44 -44 -44c-24 0 -43 19 -43 44c0 24 18 42 42 42 s45 -17 45 -42z" />
<glyph unicode="&#xf7;" horiz-adv-x="448" d="M266 453c0 -25 -20 -46 -45 -46c-26 0 -46 20 -46 46c0 25 21 45 46 45s45 -20 45 -45zM-2 261v58h445v-58h-445zM266 128c0 -25 -20 -46 -45 -46c-26 0 -46 20 -46 46c0 25 21 45 46 45s45 -20 45 -45z" />
<glyph unicode="&#xf8;" horiz-adv-x="582" d="M437 461c24 27 57 63 81 90l43 -39l-86 -95c29 -44 43 -100 43 -168c0 -121 -53 -204 -138 -241c-29 -13 -63 -20 -99 -20c-64 0 -111 20 -149 50c-24 -26 -55 -61 -78 -87l-42 40l81 90c-33 46 -49 101 -49 166c0 126 53 211 143 247c30 12 64 18 100 18 c62 0 111 -17 150 -51zM285 454c-90 0 -143 -52 -165 -121c-8 -26 -12 -54 -12 -87c0 -48 10 -87 28 -118l260 288c-28 25 -65 38 -111 38zM283 46c89 0 139 48 160 118c8 25 11 54 11 86c0 48 -7 87 -23 119l-258 -286c29 -25 66 -37 110 -37z" />
<glyph unicode="&#xf9;" horiz-adv-x="535" d="M87 223c0 -103 24 -177 125 -177c28 0 54 9 77 25s44 40 63 72v357h62v-500h-62v67c-21 -25 -42 -44 -66 -58s-49 -21 -74 -21c-136 0 -188 81 -188 224v288h63v-277zM232 558l-131 173h73l123 -173h-65z" />
<glyph unicode="&#xfa;" horiz-adv-x="535" d="M87 223c0 -103 24 -177 125 -177c28 0 54 9 77 25s44 40 63 72v357h62v-500h-62v67c-21 -25 -42 -44 -66 -58s-49 -21 -74 -21c-136 0 -188 81 -188 224v288h63v-277zM208 558h-65l124 173h72z" />
<glyph unicode="&#xfb;" horiz-adv-x="535" d="M87 223c0 -103 24 -177 125 -177c28 0 54 9 77 25s44 40 63 72v357h62v-500h-62v67c-21 -25 -42 -44 -66 -58s-49 -21 -74 -21c-136 0 -188 81 -188 224v288h63v-277zM226 663c-21 -31 -49 -73 -70 -105h-61l116 177h32l114 -177h-63z" />
<glyph unicode="&#xfc;" horiz-adv-x="535" d="M87 223c0 -103 24 -177 125 -177c28 0 54 9 77 25s44 40 63 72v357h62v-500h-62v67c-21 -25 -42 -44 -66 -58s-49 -21 -74 -21c-136 0 -188 81 -188 224v288h63v-277zM346 602c0 -25 -19 -44 -44 -44s-43 19 -43 44c0 24 18 42 42 42c25 0 45 -17 45 -42zM189 602 c0 -25 -19 -44 -44 -44c-24 0 -43 19 -43 44c0 24 18 42 42 42s45 -17 45 -42z" />
<glyph unicode="&#xfd;" horiz-adv-x="453" d="M71 -226c-18 0 -34 5 -49 10l20 61c8 -6 18 -9 31 -9c34 0 62 25 83 74l43 103c-61 158 -125 329 -186 487h69l147 -397l3 -12c1 3 2 5 3 8l158 401h67l-239 -593c-22 -54 -48 -105 -101 -125c-14 -6 -31 -8 -49 -8zM162 558h-65l124 173h72z" />
<glyph unicode="&#xfe;" horiz-adv-x="471" d="M243 -12c-74 0 -119 28 -152 74v-283h-62v952h62v-306c36 48 94 87 172 87c105 0 164 -61 190 -143c9 -30 14 -64 14 -101c0 -125 -49 -217 -132 -259c-28 -14 -58 -21 -92 -21zM257 454c-88 0 -134 -48 -166 -112v-211c29 -57 81 -85 156 -85c53 0 89 28 113 62 c27 38 43 94 43 159c0 84 -30 146 -86 173c-18 9 -38 14 -60 14z" />
<glyph unicode="&#xff;" horiz-adv-x="450" d="M59 -226c-18 0 -35 5 -50 10l21 61c7 -6 18 -9 31 -9c34 0 62 25 83 74l43 103c-61 158 -126 329 -187 487h69l147 -397l4 -12c0 2 2 5 3 8l157 401h68l-240 -593c-22 -55 -48 -104 -101 -125c-14 -6 -30 -8 -48 -8zM348 602c0 -25 -19 -44 -44 -44s-43 19 -43 44 c0 24 18 42 42 42c20 0 34 -12 41 -26c3 -5 4 -10 4 -16zM191 602c0 -25 -19 -44 -44 -44c-24 0 -43 19 -43 44c0 24 18 42 42 42c25 0 45 -17 45 -42z" />
<glyph unicode="&#x160;" horiz-adv-x="407" d="M251 817c23 35 48 71 71 106h62l-117 -179h-32l-117 179h64zM167 51c89 0 152 33 152 116c0 37 -9 57 -28 78c-11 12 -24 24 -43 37s-43 27 -72 44c-35 21 -63 40 -86 57c-47 36 -77 74 -77 146c0 57 26 100 59 129c36 32 89 53 156 53c59 -2 114 -23 163 -62l-41 -50 c-43 34 -85 51 -128 51c-64 0 -112 -25 -132 -69c-7 -14 -9 -29 -9 -46c0 -37 8 -57 27 -78c11 -11 25 -23 44 -36c63 -43 157 -88 202 -145c22 -28 33 -56 33 -101c0 -95 -53 -148 -127 -172c-28 -9 -62 -14 -100 -14h-1c-59 2 -113 24 -162 63l41 50 c43 -34 85 -51 129 -51z" />
<glyph unicode="&#x161;" horiz-adv-x="349" d="M193 630c23 35 47 70 70 105h61l-116 -177h-31l-116 177h63zM154 46c69 0 104 28 104 84c0 19 -8 35 -25 49s-42 28 -75 43c-40 18 -75 38 -100 66c-19 21 -30 46 -30 83c0 71 46 113 100 131c20 7 41 10 64 10c42 0 87 -14 135 -42l-24 -56c-41 26 -79 40 -115 40 c-44 0 -76 -19 -90 -48c-5 -10 -7 -20 -7 -32c0 -40 18 -56 45 -72c12 -7 29 -15 49 -24c44 -20 81 -38 108 -67c19 -21 29 -43 29 -81c0 -72 -44 -113 -99 -131c-21 -7 -46 -11 -72 -11c-48 0 -97 18 -147 54l28 56c24 -22 59 -40 95 -48c10 -2 19 -4 27 -4z" />
<glyph unicode="&#x178;" horiz-adv-x="540" d="M248 335c60 121 125 244 185 365h71l-226 -434v-266h-65v265c-71 144 -143 291 -214 435h74l161 -333c5 -10 9 -21 14 -32zM337 771c0 -25 -19 -44 -44 -44s-43 19 -43 44c0 24 18 42 42 42c25 0 45 -17 45 -42zM180 771c0 -25 -19 -44 -44 -44c-24 0 -43 19 -43 44 c0 24 18 42 42 42s45 -17 45 -42z" />
<glyph unicode="&#x17d;" horiz-adv-x="515" d="M302 802c23 35 48 71 71 106h62l-118 -179h-32l-117 179h64zM502 62v-62h-498v27l405 611h-372v62h471v-25l-405 -613h399z" />
<glyph unicode="&#x17e;" horiz-adv-x="429" d="M242 630c23 35 47 70 70 105h62l-117 -177h-31l-116 177h63zM7 0v29l310 413h-287v58h389v-24l-313 -418h268l33 -58h-400z" />
<glyph unicode="&#x192;" horiz-adv-x="425" d="M351 635c-50 0 -80 -28 -88 -86l-14 -98h79v-57h-87c-15 -110 -30 -214 -45 -324c-10 -70 -29 -121 -55 -153s-59 -48 -99 -48c-13 0 -28 3 -43 9v59c20 -7 34 -11 41 -11c24 0 44 13 59 37s27 60 34 107c15 111 29 213 44 324h-48v57h57c5 32 9 69 14 101 c12 83 57 141 145 141c34 -2 60 -17 80 -47l-46 -33c-10 15 -20 22 -28 22z" />
<glyph unicode="&#x2c6;" horiz-adv-x="263" d="M129 663c-21 -31 -49 -73 -70 -105h-61l116 177h32l114 -177h-63z" />
<glyph unicode="&#x2dc;" horiz-adv-x="356" d="M331 688c0 -55 -18 -97 -55 -115c-12 -6 -25 -9 -39 -9c-31 0 -57 20 -77 38c-18 16 -35 23 -50 23c-26 0 -38 -22 -38 -67h-52c0 54 19 95 54 114c11 6 23 9 37 9c25 0 53 -12 82 -36c10 -8 18 -16 26 -20s16 -6 23 -6c10 0 18 5 25 17s10 30 10 52h54z" />
<glyph unicode="&#x2013;" horiz-adv-x="569" d="M29 261v61h500v-61h-500z" />
<glyph unicode="&#x2014;" horiz-adv-x="1069" d="M34 261v61h981v-61h-981z" />
<glyph unicode="&#x2018;" horiz-adv-x="127" d="M64 463h-70l79 230h54z" />
<glyph unicode="&#x2019;" horiz-adv-x="127" d="M52 463h-53l63 230h69z" />
<glyph unicode="&#x201a;" horiz-adv-x="127" d="M52 -106h-53l63 228h69z" />
<glyph unicode="&#x201c;" horiz-adv-x="271" d="M192 463h-69l80 230h53zM77 463h-70l78 230h55z" />
<glyph unicode="&#x201d;" horiz-adv-x="271" d="M181 463h-55l63 230h71zM63 463h-52l64 230h69z" />
<glyph unicode="&#x201e;" horiz-adv-x="271" d="M181 -107h-54l63 229h70zM64 -107h-53l64 229h69z" />
<glyph unicode="&#x2020;" horiz-adv-x="327" d="M188 500c41 3 96 6 137 9v-71l-128 13v-344h-50v345c-47 -5 -103 -9 -151 -14v71l146 -9c-4 62 -10 131 -15 192h75z" />
<glyph unicode="&#x2021;" horiz-adv-x="332" d="M198 306c40 3 90 6 129 9v-72l-136 13c4 -45 10 -103 14 -149h-76l14 149c-45 -4 -100 -9 -145 -13v72l139 -9c5 34 11 60 16 94c-5 35 -11 59 -16 94c-44 -3 -96 -6 -139 -9v72l145 -14c-4 49 -10 100 -14 149h76l-14 -149c43 4 93 10 136 14v-73l-129 10 c-6 -34 -12 -60 -17 -94c6 -35 11 -59 17 -94z" />
<glyph unicode="&#x2022;" horiz-adv-x="283" d="M140 224c-57 0 -96 34 -114 74c-7 15 -10 30 -10 46c0 57 37 95 77 113c15 7 30 10 47 10c57 0 94 -35 112 -75c7 -15 10 -31 10 -48c0 -56 -35 -93 -75 -110c-15 -6 -30 -10 -47 -10z" />
<glyph unicode="&#x2026;" horiz-adv-x="593" d="M555 41c0 -28 -21 -48 -49 -48c-27 0 -47 21 -47 48s20 46 47 46c26 0 49 -19 49 -46zM338 41c0 -28 -20 -48 -48 -48s-47 20 -47 48c0 27 20 46 47 46c26 0 48 -19 48 -46zM123 41c0 -28 -20 -48 -48 -48c-27 0 -47 21 -47 48s20 46 47 46c26 0 48 -19 48 -46z" />
<glyph unicode="&#x2030;" horiz-adv-x="1149" d="M193 343c-82 0 -132 45 -154 107c-8 22 -12 46 -12 72c0 88 38 147 101 172c21 8 44 12 69 12c82 0 130 -44 151 -106c8 -23 12 -48 12 -77c0 -83 -40 -140 -98 -166c-21 -9 -44 -14 -69 -14zM298 524c0 75 -31 124 -101 124c-72 0 -108 -52 -108 -127 c0 -71 34 -122 105 -122s104 54 104 125zM199 -16h-68l416 708h67zM783 168c0 88 39 147 102 172c21 8 43 12 68 12c81 0 130 -45 151 -107c8 -22 11 -48 11 -76c0 -83 -40 -141 -98 -167c-21 -9 -44 -14 -69 -14c-82 0 -133 46 -154 108c-7 22 -11 46 -11 72zM1054 170 c0 75 -32 124 -102 124c-73 0 -107 -54 -107 -127c0 -56 21 -96 60 -114c13 -6 28 -9 44 -9c72 0 105 54 105 126zM561 -12c-82 0 -133 45 -154 107c-8 22 -11 46 -11 73c0 88 39 147 102 172c21 8 43 12 68 12c81 0 130 -45 151 -107c8 -23 12 -48 12 -76 c0 -83 -41 -141 -99 -167c-21 -9 -44 -14 -69 -14zM667 170c0 76 -31 124 -102 124c-73 0 -107 -54 -107 -127c0 -56 21 -96 60 -114c13 -6 28 -9 44 -9c72 0 105 54 105 126z" />
<glyph unicode="&#x2039;" horiz-adv-x="218" d="M133 94l-138 168l138 171h77l-140 -171c46 -54 93 -114 139 -168h-76z" />
<glyph unicode="&#x203a;" horiz-adv-x="218" d="M83 94h-80l143 172c-46 55 -96 112 -142 167h78l138 -167z" />
<glyph unicode="&#x20ac;" horiz-adv-x="462" d="M133 315c0 -8 0 -14 1 -22h261v-58h-253c13 -81 45 -149 108 -177c18 -8 37 -12 58 -12c37 0 82 18 133 53v-70c-46 -27 -91 -41 -138 -41c-65 0 -113 28 -147 64c-41 44 -68 108 -80 183h-69v58h63c-1 6 -1 13 -1 19v20c0 19 1 37 2 54h-64v58h71c20 112 69 204 159 243 c27 12 55 17 85 17c47 0 84 -12 119 -28v-71c-46 27 -87 41 -123 41c-49 0 -84 -24 -110 -53c-33 -37 -54 -89 -66 -149h253v-58h-261c-1 -14 -1 -33 -1 -49v-22z" />
<glyph unicode="&#x2122;" horiz-adv-x="695" d="M481 449c34 79 70 165 104 244h67v-330h-58v215c-31 -70 -63 -145 -93 -215h-44l-88 212v-212h-57v330h69zM180 637v-274h-57v274h-104v56h266v-56h-105z" />
<glyph unicode="&#xfb00;" horiz-adv-x="607" d="M162 500h204v74c0 79 31 132 87 154c17 7 36 11 56 11c31 0 56 -11 81 -24l-27 -53c-17 13 -35 19 -56 19c-53 0 -79 -37 -79 -111v-70h127v-58h-127v-442h-62v442h-204v-442h-62v442h-86v58h86v74c0 79 31 132 87 154c17 7 37 11 57 11c31 0 55 -11 80 -24l-27 -53 c-17 13 -34 19 -55 19c-53 0 -80 -37 -80 -111v-70z" />
<glyph unicode="&#xfb03;" horiz-adv-x="707" d="M431 500h239v-500h-62v442h-177v-442h-62v442h-204v-442h-62v442h-86v58h86v74c0 79 32 132 87 154c17 7 36 11 56 11c31 0 56 -11 81 -24l-27 -53c-17 13 -36 19 -56 19c-53 0 -79 -37 -79 -111v-70h204v74c0 78 31 132 86 154c17 7 37 11 57 11c31 0 56 -11 81 -24 l-27 -53c-17 13 -36 19 -56 19c-53 0 -79 -37 -79 -111v-70z" />
<glyph unicode="&#xfb04;" horiz-adv-x="833" d="M612 633c-12 32 -50 48 -98 48c-53 0 -80 -37 -80 -111v-70h128v-58h-128v-442h-62v442h-204v-442h-62v442h-86v58h86v74c0 79 31 132 87 154c17 7 37 11 57 11c31 0 55 -11 80 -24l-27 -53c-17 13 -34 19 -55 19c-53 0 -80 -37 -80 -111v-70h204v74c0 79 32 132 87 154 c17 7 36 11 56 11c95 0 148 -35 159 -104v-502c0 -53 11 -85 59 -85c17 0 40 8 68 24v-62c-22 -11 -44 -19 -73 -19c-77 0 -116 46 -116 137v505z" />
<glyph unicode="&#xfb06;" horiz-adv-x="654" d="M306 546c0 -30 11 -52 25 -75l-27 -56c-41 26 -79 39 -115 39c-44 0 -75 -19 -89 -48c-5 -10 -7 -20 -7 -32c0 -40 17 -56 44 -72c12 -7 29 -15 49 -24c44 -19 81 -38 108 -67c19 -21 29 -43 29 -81c0 -72 -44 -113 -99 -131c-21 -7 -46 -11 -72 -11 c-49 0 -98 16 -149 47l30 63c24 -22 59 -40 95 -48c10 -2 20 -4 28 -4c69 0 103 28 103 84c0 19 -8 35 -25 49s-42 28 -75 43c-40 18 -74 38 -99 66c-19 21 -31 46 -31 83c0 71 47 113 101 131c20 7 41 10 64 10c19 0 39 -2 60 -7c-3 12 -4 23 -4 35c0 47 25 80 52 102 c26 20 64 38 107 38c59 0 98 -32 98 -91v-89h127v-58h-127v-309c0 -53 11 -85 60 -85c16 0 33 5 51 16l19 -53c-23 -12 -45 -20 -75 -20c-77 0 -117 46 -117 137v314h-86v58h86v79c0 32 -22 48 -53 48c-38 0 -66 -20 -79 -46c-5 -10 -7 -22 -7 -35z" />
<glyph horiz-adv-x="264" d="M257 274h-240v58h92v298c-29 -10 -70 -23 -98 -33v61l157 50v-376h89v-58z" />
<glyph horiz-adv-x="299" d="M40 661c34 23 67 41 116 41c58 0 98 -25 115 -67c6 -14 9 -30 9 -47c0 -32 -8 -55 -21 -78c-22 -38 -50 -67 -85 -101l-76 -74h183v-61h-262v60l114 113c30 29 52 51 70 81c10 17 15 30 15 54c0 42 -22 63 -65 63c-32 0 -69 -20 -113 -58v74z" />
<glyph horiz-adv-x="279" d="M191 493c39 -16 67 -50 67 -102c0 -62 -34 -102 -81 -119c-18 -7 -38 -9 -60 -9c-36 0 -69 8 -100 25v68c39 -25 73 -37 101 -37c48 0 81 26 81 72s-34 69 -101 69h-42v57h38c61 0 92 23 92 71c0 37 -21 55 -63 55c-20 0 -50 -10 -90 -31v64c29 14 60 24 98 24 c54 0 91 -24 107 -63c5 -13 8 -27 8 -43c0 -47 -19 -81 -55 -101z" />
<glyph horiz-adv-x="305" d="M238 377v-103h-57v103h-185v42l185 274h57v-260h53v-56h-53zM181 433v165c-1 -3 -3 -6 -5 -8l-106 -157h111z" />
<glyph horiz-adv-x="280" d="M89 531c11 1 21 1 32 1c66 0 113 -25 134 -71c7 -16 11 -34 11 -55c0 -72 -39 -116 -93 -134c-19 -6 -39 -9 -60 -9c-35 0 -66 8 -93 24v62c20 -10 37 -18 53 -23s30 -7 41 -7c55 0 93 29 93 84c0 48 -33 72 -99 72c-20 0 -44 -3 -62 -5c-10 -1 -10 -2 -14 -2v225h216 v-59h-159v-103z" />
<glyph horiz-adv-x="288" d="M2 635v58h279v-37l-164 -387h-60l155 366h-210z" />
<glyph horiz-adv-x="323" d="M78 388c0 -44 36 -65 80 -65c34 0 59 14 73 35c5 8 8 17 8 28c0 18 -7 33 -20 46s-33 25 -62 35c-25 -9 -45 -19 -59 -32s-20 -28 -20 -47zM226 589c0 36 -28 56 -64 56c-30 0 -53 -14 -63 -33c-4 -7 -5 -14 -5 -22c0 -17 6 -31 17 -41s28 -20 49 -28c22 8 38 19 49 29 s17 23 17 39zM224 495c42 -19 76 -48 76 -105c0 -66 -42 -104 -94 -118c-17 -5 -33 -6 -50 -6c-59 0 -104 24 -126 63c-9 15 -13 34 -13 56c0 57 35 89 75 110c-36 19 -60 43 -60 94c0 74 57 113 130 113c55 0 95 -25 115 -61c7 -14 11 -29 11 -47c0 -52 -29 -79 -64 -99z " />
<glyph horiz-adv-x="117" d="M25 0v500h62v-500h-62z" />
<glyph horiz-adv-x="703" />
<glyph horiz-adv-x="592" d="M577 11c-23 -12 -46 -20 -76 -20c-77 0 -116 46 -116 137v314h-223v-442h-62v442h-87v58h87v74c0 79 31 132 87 154c17 7 36 11 56 11c31 0 56 -11 81 -24l-27 -53c-17 13 -35 19 -56 19c-53 0 -79 -37 -79 -111v-70h223v140h62v-140h127v-58h-127v-309 c0 -53 12 -85 60 -85c16 0 33 5 50 16z" />
<glyph horiz-adv-x="117" d="M87 0h-62v731h62v-731z" />
<glyph horiz-adv-x="531" d="M262 512c74 0 127 -31 168 -71v59h62v-500h-62v93c-24 -35 -51 -60 -80 -78s-60 -27 -93 -27c-78 0 -136 30 -174 73c-39 43 -63 106 -63 186c0 126 53 211 143 247c30 12 63 18 99 18zM260 454c-90 0 -142 -52 -164 -121c-8 -26 -13 -54 -13 -87c0 -92 38 -156 102 -185 c21 -10 46 -15 73 -15s56 9 84 27s58 46 88 83v224c-59 49 -116 74 -170 74z" />
<glyph horiz-adv-x="531" d="M262 512c74 0 127 -31 168 -71v59h62v-500h-62v93c-24 -35 -51 -60 -80 -78s-60 -27 -93 -27c-78 0 -136 30 -174 73c-39 43 -63 106 -63 186c0 126 53 211 143 247c30 12 63 18 99 18zM260 454c-90 0 -142 -52 -164 -121c-8 -26 -13 -54 -13 -87c0 -92 38 -156 102 -185 c21 -10 46 -15 73 -15s56 9 84 27s58 46 88 83v224c-59 49 -116 74 -170 74zM227 558h-65l124 173h72z" />
<glyph horiz-adv-x="531" d="M262 512c74 0 127 -31 168 -71v59h62v-500h-62v93c-24 -35 -51 -60 -80 -78s-60 -27 -93 -27c-78 0 -136 30 -174 73c-39 43 -63 106 -63 186c0 126 53 211 143 247c30 12 63 18 99 18zM260 454c-90 0 -142 -52 -164 -121c-8 -26 -13 -54 -13 -87c0 -92 38 -156 102 -185 c21 -10 46 -15 73 -15s56 9 84 27s58 46 88 83v224c-59 49 -116 74 -170 74zM293 558l-130 173h72l124 -173h-66z" />
<glyph horiz-adv-x="531" d="M262 512c74 0 127 -31 168 -71v59h62v-500h-62v93c-24 -35 -51 -60 -80 -78s-60 -27 -93 -27c-78 0 -136 30 -174 73c-39 43 -63 106 -63 186c0 126 53 211 143 247c30 12 63 18 99 18zM260 454c-90 0 -142 -52 -164 -121c-8 -26 -13 -54 -13 -87c0 -92 38 -156 102 -185 c21 -10 46 -15 73 -15s56 9 84 27s58 46 88 83v224c-59 49 -116 74 -170 74zM259 663c-22 -32 -49 -73 -70 -105h-61l116 177h31l116 -177h-63z" />
<glyph horiz-adv-x="531" d="M262 512c74 0 127 -31 168 -71v59h62v-500h-62v93c-24 -35 -51 -60 -80 -78s-60 -27 -93 -27c-78 0 -136 30 -174 73c-39 43 -63 106 -63 186c0 126 53 211 143 247c30 12 63 18 99 18zM260 454c-90 0 -142 -52 -164 -121c-8 -26 -13 -54 -13 -87c0 -92 38 -156 102 -185 c21 -10 46 -15 73 -15s56 9 84 27s58 46 88 83v224c-59 49 -116 74 -170 74zM416 688c0 -55 -18 -97 -55 -115c-12 -6 -25 -9 -39 -9c-11 0 -23 3 -36 10s-27 16 -41 28c-18 16 -35 23 -50 23c-26 0 -38 -22 -38 -67h-53c0 54 20 95 55 114c11 6 23 9 37 9 c25 0 52 -12 81 -36c10 -8 19 -16 27 -20s15 -6 22 -6c10 0 19 5 26 17s10 30 10 52h54z" />
<glyph horiz-adv-x="531" d="M262 512c74 0 127 -31 168 -71v59h62v-500h-62v93c-24 -35 -51 -60 -80 -78s-60 -27 -93 -27c-78 0 -136 30 -174 73c-39 43 -63 106 -63 186c0 126 53 211 143 247c30 12 63 18 99 18zM260 454c-90 0 -142 -52 -164 -121c-8 -26 -13 -54 -13 -87c0 -92 38 -156 102 -185 c21 -10 46 -15 73 -15s56 9 84 27s58 46 88 83v224c-59 49 -116 74 -170 74zM381 602c0 -25 -19 -44 -44 -44c-24 0 -43 19 -43 44c0 24 18 42 42 42c20 0 34 -12 41 -26c3 -5 4 -10 4 -16zM224 602c0 -25 -18 -44 -43 -44c-24 0 -44 19 -44 44c0 24 19 42 43 42 s44 -17 44 -42z" />
<glyph horiz-adv-x="513" d="M257 558c-48 0 -81 24 -96 57c-5 12 -8 24 -8 39c0 46 28 76 62 89c13 5 27 7 42 7c48 0 81 -23 96 -57c5 -12 8 -25 8 -39c0 -46 -29 -76 -63 -89c-13 -5 -27 -7 -41 -7zM309 654c0 29 -23 46 -52 46s-50 -17 -50 -46c0 -28 21 -46 50 -46s52 18 52 46zM257 512 c74 0 127 -31 168 -71v59h62v-500h-62v93c-24 -35 -51 -60 -80 -78s-61 -27 -94 -27c-78 0 -135 30 -173 73c-39 43 -64 106 -64 186c0 126 53 211 143 247c30 12 64 18 100 18zM255 454c-90 0 -142 -52 -164 -121c-8 -26 -13 -54 -13 -87c0 -93 38 -156 102 -185 c22 -10 46 -15 73 -15c55 0 111 37 171 110v224c-59 49 -115 74 -169 74z" />
<glyph horiz-adv-x="708" d="M504 578c0 32 -22 48 -53 48c-37 0 -66 -20 -79 -45c-5 -10 -8 -22 -8 -36c0 -24 7 -43 18 -60c11 -6 19 -10 32 -18l-35 -48c-38 23 -77 35 -116 35c-90 0 -143 -56 -167 -125c-9 -26 -13 -54 -13 -85c0 -90 36 -154 98 -183c20 -9 43 -15 68 -15c46 0 88 15 127 43 l35 -49c-30 -17 -58 -30 -85 -39s-54 -13 -79 -13c-74 0 -128 30 -165 71c-38 42 -63 105 -63 183c0 83 30 149 71 194c40 43 100 76 180 76c15 0 28 -2 41 -5c-2 9 -3 20 -3 31c0 47 24 81 51 103c26 21 65 39 109 39c59 0 98 -32 98 -91v-89h127v-59h-127v-308 c0 -53 11 -85 59 -85c16 0 34 5 51 16l19 -53c-23 -12 -45 -21 -75 -21c-77 0 -116 46 -116 137v314h-87v59h87v78z" />
</font>
</defs>
</svg>
